<?xml version="1.0" standalone="no"?>
<!DOCTYPE svg PUBLIC "-//W3C//DTD SVG 1.1//EN" "http://www.w3.org/Graphics/SVG/1.1/DTD/svg11.dtd" >
<svg xmlns="http://www.w3.org/2000/svg">
<metadata></metadata>
<defs>
<font id="square_721roman" horiz-adv-x="1157" >
<font-face units-per-em="2048" ascent="1638" descent="-410" />
<missing-glyph horiz-adv-x="692" />
<glyph unicode="&#xfb01;" horiz-adv-x="1150" d="M47 920v133h148q-2 18 -2 36.5v34.5q0 100 16 170t53 113t97.5 62.5t148.5 19.5q41 0 84 -2t90 -6v-142q-41 2 -74 3t-57 1q-70 0 -110 -10t-60.5 -35.5t-25.5 -67.5t-5 -106v-71h332v-133h-332v-920h-155v920h-148zM831 0v1053h158v-1053h-158zM831 1305v176h158v-176 h-158z" />
<glyph unicode="&#xfb02;" horiz-adv-x="1150" d="M47 920v133h148q-2 18 -2 36.5v34.5q0 100 16 170t53 113t97.5 62.5t148.5 19.5q41 0 84 -2t90 -6v-142q-41 2 -74 3t-57 1q-70 0 -110 -10t-60.5 -35.5t-25.5 -67.5t-5 -106v-71h332v-133h-332v-920h-155v920h-148zM831 0v1481h158v-1481h-158z" />
<glyph horiz-adv-x="0" />
<glyph unicode="&#xd;" horiz-adv-x="692" />
<glyph unicode=" "  horiz-adv-x="692" />
<glyph unicode="&#x09;" horiz-adv-x="692" />
<glyph unicode="&#xa0;" horiz-adv-x="692" />
<glyph unicode="!" horiz-adv-x="516" d="M180 0v193h156v-193h-156zM180 1489h156l-8 -1090h-138z" />
<glyph unicode="&#x22;" horiz-adv-x="569" d="M98 881v553h101v-553h-101zM371 881v553h102v-553h-102z" />
<glyph unicode="#" horiz-adv-x="1574" d="M117 479l39 107h325l101 278h-353l35 107h354l173 483h127l-168 -483h264l172 483h127l-170 -483h315l-37 -107h-317l-98 -278h340l-37 -107h-340l-170 -479h-129l172 479h-269l-172 -479h-127l170 479h-327zM612 586h267l96 278h-266z" />
<glyph unicode="$" horiz-adv-x="1384" d="M133 395q0 23 1 44.5t3 45.5h156q0 -16 -1 -32.5t-1 -32.5q0 -82 12 -136.5t42 -87t81 -46t129 -13.5h34.5t39.5 2v547q-131 2 -221.5 21.5t-146.5 64.5t-81.5 120t-25.5 189q0 115 22.5 196t71.5 133t127 75.5t188 23.5h32.5t33.5 -2v105h143v-105h41q221 0 319.5 -82 t98.5 -272q0 -20 -1 -40.5t-3 -43.5h-158q2 16 2 32.5v31.5q0 66 -13.5 107.5t-44 66t-82.5 34t-130 9.5h-29v-512q133 -4 224 -24.5t146.5 -67t80 -123t24.5 -191.5q0 -121 -22.5 -208t-70.5 -142t-125 -81t-185 -26h-34.5t-37.5 2v-96h-143v96q-14 0 -28.5 -1t-27.5 -1 q-231 0 -335.5 98.5t-104.5 321.5zM313 1081q0 -70 13.5 -113.5t49.5 -69.5t96 -37t157 -17v510h-43q-82 0 -135.5 -13.5t-84 -45t-42 -84t-11.5 -130.5zM772 133h39q82 0 136 14.5t85 48t43 90t12 140.5q0 74 -14 122t-50 76.5t-97.5 41t-153.5 14.5v-547z" />
<glyph unicode="%" horiz-adv-x="1857" d="M74 872v316q0 88 15 148.5t51 98.5t94.5 55t144.5 17h90q86 0 144.5 -17t94 -55t50 -98.5t14.5 -148.5v-316q0 -88 -14.5 -148t-50 -98t-94 -54.5t-144.5 -16.5h-90q-86 0 -144.5 16.5t-94.5 54.5t-51 98t-15 148zM205 905q0 -66 6 -107.5t24.5 -65t54.5 -33t97 -9.5h74 q61 0 97 9.5t54.5 34t23.5 65.5t5 106v252q0 63 -5 105.5t-23.5 67t-54.5 34.5t-97 10h-74q-61 0 -97 -10t-55.5 -34.5t-24.5 -66.5t-5 -106v-252zM594 -18l526 1525h142l-527 -1525h-141zM1085 301v313q0 88 15.5 148.5t50.5 98.5t93.5 55.5t144.5 17.5h90q86 0 145 -17.5 t94 -55.5t50.5 -98.5t15.5 -148.5v-313q0 -88 -15.5 -149.5t-50.5 -99.5t-94 -54t-145 -16h-90q-86 0 -144.5 16t-93.5 54t-50.5 99.5t-15.5 149.5zM1217 332q0 -66 6 -108t24.5 -65.5t54 -32.5t97.5 -9h71q61 0 97.5 9t54.5 33.5t24.5 65.5t6.5 107v252q0 63 -5.5 105 t-24.5 66.5t-55 35t-98 10.5h-71q-61 0 -97 -10.5t-55.5 -35t-24.5 -66.5t-5 -105v-252z" />
<glyph unicode="&#x26;" horiz-adv-x="1488" d="M113 467q0 180 58 276.5t210 126.5q-137 96 -137 316q0 96 24.5 158.5t77.5 98.5t137 50t205 14q233 0 342 -73.5t109 -251.5v-125h-166v114q0 66 -15.5 103t-49.5 54.5t-88 20.5t-132 3t-130 -3t-84 -19.5t-45 -50.5t-13 -93q0 -55 9 -92t28.5 -66t48 -54.5t65.5 -55.5 l537 -449v207h166v-219q0 -43 -13 -117l281 -234l-96 -116l-234 194q-31 -68 -80 -108.5t-118.5 -62t-162.5 -27.5t-210 -6q-80 0 -146.5 4t-122 16t-99.5 37.5t-81 68.5q-45 53 -60 142.5t-15 218.5zM283 451q0 -98 9 -161t50 -97q45 -39 139 -47.5t244 -8.5q154 0 239 35 t109 127l-549 459q-76 -2 -123 -20.5t-73.5 -55.5t-35.5 -94.5t-9 -136.5z" />
<glyph unicode="'" horiz-adv-x="294" d="M98 881v553h101v-553h-101z" />
<glyph unicode="(" horiz-adv-x="663" d="M152 492v505q0 137 17 234.5t59 159t112 89t174 27.5h64v-155h-46q-72 0 -112.5 -17.5t-62 -59.5t-27.5 -110.5t-6 -173.5v-493q0 -104 6 -173t27.5 -111t62.5 -59.5t112 -17.5h46v-155h-64q-104 0 -174 27.5t-112 89t-59 157.5t-17 236z" />
<glyph unicode=")" horiz-adv-x="663" d="M86 -18v155h45q72 0 113 17.5t62.5 59.5t27.5 110.5t6 173.5v493q0 104 -6 173t-27.5 111t-62.5 59.5t-113 17.5h-45v155h64q104 0 173.5 -27.5t111.5 -89t59.5 -158.5t17.5 -235v-505q0 -139 -17.5 -235.5t-59.5 -158t-111.5 -89t-173.5 -27.5h-64z" />
<glyph unicode="*" horiz-adv-x="1024" d="M100 1049v133h283v-133h-283zM250 791l141 247l115 -65l-144 -248zM250 1440l112 65l144 -245l-115 -66zM518 973l115 65l141 -245l-112 -66zM518 1260l144 245l112 -65l-141 -248zM639 1049v133h285v-133h-285z" />
<glyph unicode="+" horiz-adv-x="1705" d="M254 561v98h551v562h98v-562h549v-98h-549v-561h-98v561h-551z" />
<glyph unicode="," horiz-adv-x="692" d="M258 0v217h176v-262q0 -78 -45 -122t-131 -44v92q39 4 56.5 20.5t17.5 53.5v45h-74z" />
<glyph unicode="-" horiz-adv-x="825" d="M133 485v140h559v-140h-559z" />
<glyph unicode="." horiz-adv-x="692" d="M133 0v217h174v-217h-174z" />
<glyph unicode="/" horiz-adv-x="544" d="M-47 -190l528 1697h140l-531 -1697h-137z" />
<glyph unicode="0" horiz-adv-x="1384" d="M133 492v505q0 141 24.5 238.5t81 158t149.5 87t233 26.5h143q137 0 231.5 -26.5t150.5 -87t80.5 -157.5t24.5 -239v-505q0 -141 -24.5 -238.5t-80.5 -158t-150.5 -87t-231.5 -26.5h-143q-139 0 -232.5 26.5t-150 87t-81 157.5t-24.5 239zM303 496q0 -102 8 -174t56 -119 q43 -47 105.5 -57.5t154.5 -10.5h131q90 0 152.5 10.5t107.5 57.5q47 47 55 117.5t8 173.5v499q0 102 -8 173t-55 118q-43 45 -105.5 57.5t-154.5 12.5h-131q-92 0 -154.5 -10.5t-105.5 -57.5q-47 -47 -55.5 -118.5t-8.5 -174.5v-497z" />
<glyph unicode="1" horiz-adv-x="1384" d="M279 1090l399 399h215v-1489h-162v1341l-350 -352z" />
<glyph unicode="2" horiz-adv-x="1384" d="M150 0v252q0 96 14 169t63 132q51 61 125 91t170 56l336 93q160 43 197 100q20 29 23 77t3 120q0 82 -9 134t-54 87q-57 43 -367 43q-100 0 -164.5 -8.5t-101.5 -34t-51.5 -74.5t-14.5 -131v-88h-169v98q0 121 28.5 197t90 119t158.5 59t235 16q147 0 243 -7t148 -30 q63 -29 101 -63.5t58.5 -81.5t26.5 -108.5t6 -141.5q0 -96 -10 -163.5t-43 -117t-91.5 -84t-154.5 -61.5l-416 -117q-53 -16 -93 -30.5t-66.5 -38t-39 -57t-12.5 -87.5v-163h926v-156h-1095z" />
<glyph unicode="3" horiz-adv-x="1384" d="M145 377v117h166v-134q0 -78 21.5 -122.5t69 -67.5t122 -29t181.5 -6q141 0 226 13.5t122 66.5q18 29 22 87t4 151q0 59 -8 103t-35.5 71.5t-79 41t-137.5 13.5h-227v152h207q82 0 132 14t76.5 45t36 82t9.5 125q0 78 -6.5 129t-45.5 82q-29 23 -109.5 32t-217.5 9 q-92 0 -156.5 -6.5t-104.5 -26t-57.5 -58t-17.5 -104.5v-135h-166v131q0 100 29.5 169t91 110t155 58t222.5 17q143 0 241.5 -7t155.5 -36q96 -47 126 -130t30 -224q0 -78 -8.5 -136.5t-31 -100.5t-63.5 -67.5t-106 -39.5q70 -14 115 -39t71.5 -64.5t36.5 -95t10 -131.5 q0 -88 -8 -157.5t-31 -124.5q-25 -55 -66.5 -89t-103 -52.5t-143.5 -24.5t-186 -6q-80 0 -147.5 1t-124 9t-101.5 26.5t-82 51.5q-59 53 -84 127.5t-25 179.5z" />
<glyph unicode="4" horiz-adv-x="1384" d="M113 346v191l729 952h229v-985h227v-158h-227v-346h-166v346h-792zM274 504h631v821z" />
<glyph unicode="5" horiz-adv-x="1384" d="M141 340v96h166v-98q0 -68 20.5 -109t65.5 -61.5t116 -26.5t171 -6h51q94 0 159.5 12.5t119.5 73.5q29 35 35 85t6 122v68q0 84 -5.5 147.5t-27.5 110.5q-39 76 -118 96t-212 20q-176 0 -263 -26.5t-91 -116.5h-164v762h983v-158h-819v-428q29 39 64.5 61.5t81.5 33 t102.5 13.5t126.5 3q127 0 219 -12.5t157 -65.5q43 -35 70 -78t40 -96t18.5 -117.5t5.5 -142.5q0 -145 -18.5 -245.5t-88.5 -166.5q-41 -37 -86 -59.5t-97 -32.5t-111.5 -13t-127.5 -3q-86 0 -157.5 3t-129 14t-102.5 34.5t-80 64.5q-80 96 -80 242z" />
<glyph unicode="6" horiz-adv-x="1384" d="M156 416v684q0 111 23.5 188.5t75.5 125.5t135 70.5t204 22.5h231q223 0 324.5 -75.5t101.5 -251.5v-80h-166v47q0 68 -17 107.5t-59 61t-111 28t-169 6.5q-129 0 -211 -7.5t-123 -33.5q-35 -23 -58.5 -74t-23.5 -119v-354q23 49 60 78.5t89 46t119.5 21.5t153.5 5 q129 0 225.5 -14t160 -49t95 -93.5t31.5 -146.5v-270q0 -215 -123 -295q-78 -49 -188.5 -57t-263.5 -8q-141 0 -239.5 20t-160 70.5t-89 134.5t-27.5 211zM311 465q0 -184 35 -227q27 -35 63.5 -54.5t86 -29t111 -11.5t138.5 -2q102 0 168 7.5t104 30t52 63.5t14 108v213 q0 70 -19.5 110t-64.5 59.5t-118.5 24.5t-182.5 5q-135 0 -218 -14.5t-122 -55.5q-29 -31 -38 -86t-9 -141z" />
<glyph unicode="7" horiz-adv-x="1384" d="M174 1331v158h1069v-164l-719 -1325h-198l743 1331h-895z" />
<glyph unicode="8" horiz-adv-x="1384" d="M141 426q0 76 8.5 133t31 99t63 70t106.5 46q-55 14 -92 40t-57.5 63.5t-28.5 91t-8 125.5q0 90 8 158.5t47 127.5q53 80 170 103.5t311 23.5q164 0 267.5 -16t150.5 -57q35 -29 55.5 -63t32 -74t14.5 -87t3 -104q0 -152 -40 -231.5t-153 -100.5q66 -16 107 -44 t64.5 -68.5t32.5 -98t9 -133.5q0 -131 -16.5 -219t-75.5 -141q-63 -57 -179 -72.5t-296 -15.5q-90 0 -164 4t-132 18t-103.5 40t-77.5 67q-37 47 -47.5 123.5t-10.5 191.5zM307 430q0 -82 7.5 -137t39.5 -90q37 -41 120 -53.5t216 -12.5q123 0 203 9.5t119 39.5 q45 35 55 89.5t10 136.5q0 68 -6 117t-29 83q-35 55 -119.5 68.5t-232.5 13.5q-127 0 -205.5 -8t-117.5 -41q-35 -29 -47.5 -82t-12.5 -133zM332 1081q0 -80 17.5 -128t59.5 -72.5t113 -31.5t180 -7q104 0 173 8t108 33.5t54.5 75t15.5 131.5q0 66 -4.5 112.5t-26.5 79.5 q-27 41 -109 55.5t-225 14.5q-127 0 -204.5 -11.5t-110.5 -42.5q-29 -29 -35 -81t-6 -136z" />
<glyph unicode="9" horiz-adv-x="1384" d="M113 305v80h166v-47q0 -68 17 -108t59 -61.5t109.5 -27.5t170.5 -6q129 0 211 7.5t123 33.5q35 23 58.5 74t23.5 119v356q-47 -96 -149.5 -124t-274.5 -28q-129 0 -225.5 14.5t-159 49.5t-94 92t-31.5 145v273q0 213 123 293q78 49 187.5 58t262.5 9q141 0 239.5 -20.5 t160 -70.5t90 -134t28.5 -211v-686q0 -111 -23.5 -187.5t-75.5 -125.5t-135 -70.5t-204 -21.5h-231q-225 0 -325.5 74.5t-100.5 250.5zM281 922q0 -70 19 -110t64.5 -59.5t119 -24.5t182.5 -5q135 0 218 14.5t122 55.5q29 31 37 86t8 141q0 92 -7.5 148.5t-25.5 78.5 q-27 35 -65 55.5t-87 29.5t-111.5 11.5t-138.5 2.5q-102 0 -167.5 -8.5t-102.5 -31t-51 -63.5t-14 -108v-213z" />
<glyph unicode=":" horiz-adv-x="692" d="M258 0v217h176v-217h-176zM258 834v219h176v-219h-176z" />
<glyph unicode=";" horiz-adv-x="692" d="M258 0v217h176v-262q0 -78 -45 -122t-131 -44v92q39 4 56.5 20.5t17.5 53.5v45h-74zM258 834v219h176v-219h-176z" />
<glyph unicode="&#x3c;" horiz-adv-x="1705" d="M264 569v82l1178 484v-109l-1022 -416l1022 -413v-109z" />
<glyph unicode="=" horiz-adv-x="1705" d="M254 375v98h1198v-98h-1198zM254 748v98h1198v-98h-1198z" />
<glyph unicode="&#x3e;" horiz-adv-x="1705" d="M264 88v109l1022 413l-1022 416v109l1178 -484v-82z" />
<glyph unicode="?" horiz-adv-x="1062" d="M78 1028v148q0 98 27.5 161.5t86 101.5t148.5 53t213 15t209 -16t139 -60.5t78 -121t25 -195.5q0 -86 -7.5 -151.5t-28 -113.5t-54 -83t-87.5 -59q-68 -31 -120 -53.5t-87.5 -45t-53 -51.5t-17.5 -74v-75h-166v118q0 57 16.5 97.5t46 69t73.5 51t99 47.5q68 29 116 53 t73 59q37 55 37 215q0 74 -12.5 119t-41 71.5t-74.5 36t-112 9.5q-125 0 -200.5 -6.5t-106.5 -28.5q-33 -25 -45 -77t-12 -136v-35.5t2 -42.5h-164zM383 0v190h166v-190h-166z" />
<glyph unicode="@" horiz-adv-x="2048" d="M117 537q0 205 86 382t252 314q268 221 659 221q168 0 312.5 -45t244.5 -123q129 -100 194.5 -228t65.5 -280q0 -174 -62.5 -311t-180.5 -231q-141 -111 -310 -111q-193 0 -192 151q0 6 1 13.5t1 15.5q-51 -88 -127 -134t-168 -46q-154 0 -233.5 84t-79.5 244 q0 117 36.5 217t99 172.5t147.5 114.5t181 42q188 0 254 -163l60 125h94l-139 -562q-8 -35 -12.5 -56t-4.5 -36q0 -43 28 -67.5t79 -24.5q49 0 103.5 20.5t107.5 61.5q96 76 150.5 202t54.5 285q0 123 -51.5 229.5t-143.5 184.5t-222 122t-290 44q-350 0 -582 -199 q-297 -254 -297 -653q0 -174 58.5 -304t185.5 -233q100 -82 241.5 -128t303.5 -46q174 0 337 50.5t298 142.5l39 -55q-295 -221 -654 -222q-383 0 -622 185q-156 119 -229.5 273.5t-73.5 361.5zM702 444q0 -113 54.5 -174t152.5 -61q106 0 189.5 70.5t111.5 189.5l62 248 q-18 94 -75.5 146t-139.5 52q-78 0 -143.5 -35.5t-112.5 -99t-73 -149.5t-26 -187z" />
<glyph unicode="A" horiz-adv-x="1417" d="M23 0l550 1489h271l553 -1489h-170l-142 381h-753l-139 -381h-170zM387 528h645l-297 803h-53z" />
<glyph unicode="B" horiz-adv-x="1435" d="M184 0v1489h693q121 0 197.5 -16.5t121.5 -57.5t61.5 -112.5t16.5 -184.5q0 -76 -6 -132t-25.5 -97t-53.5 -67.5t-89 -41.5q66 -16 106.5 -44.5t64 -73t32 -104.5t8.5 -142q0 -127 -22.5 -208t-79 -127t-149.5 -63.5t-235 -17.5h-641zM346 156h543q90 0 140 14t74.5 48 t30 88t5.5 132q0 88 -14.5 139.5t-54.5 78t-108.5 32.5t-175.5 6h-440v-538zM346 846h537q72 0 115.5 12t67.5 42t31 79t7 121q0 78 -9.5 124t-40 69.5t-89 30.5t-154.5 7h-465v-485z" />
<glyph unicode="C" horiz-adv-x="1398" d="M133 492v505q0 141 25.5 239.5t84 158t152.5 86t234 26.5h174q131 0 225 -21.5t154.5 -70.5t89 -130t28.5 -202v-65h-170v41q0 90 -17 147.5t-57 89t-105.5 44t-159.5 12.5h-115q-102 0 -174 -11.5t-125 -60.5q-53 -51 -63.5 -129t-10.5 -195v-424q0 -117 10.5 -194.5 t63.5 -128.5q55 -53 128 -62.5t171 -9.5h115q98 0 163.5 12.5t105.5 47t56.5 96t16.5 158.5v34.5t-3 36.5h170v-98q0 -129 -26.5 -214t-86 -135t-153.5 -71.5t-231 -21.5h-174q-139 0 -233.5 26.5t-153 86t-84 157.5t-25.5 240z" />
<glyph unicode="D" horiz-adv-x="1536" d="M180 0v1489h719q141 0 237.5 -26.5t156 -85t86 -154t26.5 -232.5v-491q0 -137 -26.5 -232.5t-86 -155t-156 -86t-237.5 -26.5h-719zM344 147h528q104 0 173 15.5t111 54.5t59.5 106.5t17.5 174.5v481q0 109 -16.5 179.5t-57.5 111.5t-110.5 56t-176.5 15h-528v-1194z" />
<glyph unicode="E" horiz-adv-x="1308" d="M180 0v1489h1045v-158h-881v-487h856v-152h-856v-536h881v-156h-1045z" />
<glyph unicode="F" horiz-adv-x="1214" d="M180 0v1489h930v-158h-766v-487h743v-152h-743v-692h-164z" />
<glyph unicode="G" horiz-adv-x="1503" d="M123 492v505q0 143 27.5 240.5t91 158t166 86t251.5 25.5h189q272 0 404 -91t132 -294v-63h-170v18q0 84 -21.5 137.5t-67.5 84t-116.5 42t-170.5 11.5h-131q-111 0 -192 -10.5t-142 -63.5q-55 -47 -66.5 -124t-11.5 -198v-424q0 -121 11 -197.5t67 -123.5 q63 -53 143 -63.5t191 -10.5h131q100 0 172.5 9.5t130.5 56.5q51 43 62 113.5t11 181.5v92h-413v151h583v-249q0 -143 -27.5 -240.5t-91 -158t-166 -86t-251.5 -25.5h-189q-150 0 -252 25.5t-165.5 86t-91 157.5t-27.5 241z" />
<glyph unicode="H" horiz-adv-x="1546" d="M180 0v1489h164v-643h858v643h164v-1489h-164v690h-858v-690h-164z" />
<glyph unicode="I" horiz-adv-x="526" d="M180 0v1489h166v-1489h-166z" />
<glyph unicode="J" horiz-adv-x="1208" d="M47 492v30h166v-24q0 -109 9 -178.5t38 -109.5t82 -56.5t143 -16.5h119q90 0 144.5 16.5t83 57.5t37 110.5t8.5 176.5v991h165v-1040q0 -127 -23.5 -216.5t-74.5 -144.5t-132 -80.5t-194 -25.5h-147q-121 0 -202 26.5t-130 87t-70.5 157.5t-21.5 239z" />
<glyph unicode="K" horiz-adv-x="1370" d="M180 0v1489h164v-631h127l604 631h217l-686 -711l774 -778h-225l-684 698h-127v-698h-164z" />
<glyph unicode="L" horiz-adv-x="1222" d="M180 0v1489h162v-1333h844v-156h-1006z" />
<glyph unicode="M" horiz-adv-x="1918" d="M180 0v1489h271l510 -1327l505 1327h273v-1489h-164v1350l-514 -1350h-203l-514 1350v-1350h-164z" />
<glyph unicode="N" horiz-adv-x="1587" d="M180 0v1489h254l807 -1329v1329h164v-1489h-254l-807 1331v-1331h-164z" />
<glyph unicode="O" horiz-adv-x="1525" d="M133 492v505q0 143 27.5 240.5t91 158t166 86t252.5 25.5h188q150 0 253 -25.5t165.5 -85t90.5 -156.5t28 -243v-505q0 -143 -28 -240.5t-91.5 -158t-165.5 -86t-252 -25.5h-188q-150 0 -252.5 25.5t-166 86t-91 157.5t-27.5 241zM303 532q0 -121 12.5 -197.5 t67.5 -123.5q63 -53 143 -63.5t191 -10.5h92q111 0 191.5 10.5t144.5 63.5q55 47 66.5 125t11.5 196v424q0 119 -12.5 198t-67.5 126q-61 53 -142 62.5t-192 9.5h-92q-111 0 -191 -10.5t-143 -63.5q-55 -47 -67.5 -125t-12.5 -199v-422z" />
<glyph unicode="P" horiz-adv-x="1341" d="M180 0v1489h627q119 0 203 -15.5t137 -54.5t76.5 -104.5t23.5 -165.5v-225q0 -102 -23.5 -169t-75.5 -107t-136 -55t-205 -15h-463v-578h-164zM344 735h461q68 0 119 6.5t84.5 25.5t50 56t16.5 101v219q0 63 -15.5 100t-48 56.5t-83.5 25.5t-123 6h-461v-596z" />
<glyph unicode="Q" horiz-adv-x="1525" d="M133 492v505q0 143 27.5 240.5t91 158t166 86t252.5 25.5h188q150 0 253 -25.5t165.5 -85t90.5 -156.5t28 -243v-505q0 -117 -13.5 -197t-62.5 -133l90 -90l-109 -111l-94 96q-49 -49 -134 -62t-214 -13h-188q-150 0 -252.5 25.5t-166 86t-91 157.5t-27.5 241zM303 532 q0 -121 12.5 -197.5t67.5 -123.5q63 -53 143 -63.5t191 -10.5h129q98 0 161.5 5t92.5 22l-281 280l105 107l284 -281q6 37 10.5 93.5t4.5 134.5v458q0 119 -12.5 198t-67.5 126q-61 53 -142 62.5t-192 9.5h-92q-111 0 -191 -10.5t-143 -63.5q-55 -47 -67.5 -125t-12.5 -199 v-422z" />
<glyph unicode="R" horiz-adv-x="1431" d="M180 0v1489h672q119 0 203 -15.5t137 -54.5t76.5 -104.5t23.5 -165.5v-225q0 -233 -192 -267q111 -27 151.5 -95t40.5 -204v-358h-172v307q0 82 -11 134.5t-40 83t-77 43t-120 12.5h-528v-580h-164zM344 735h475q76 0 133.5 6.5t94 29t55 63t18.5 112.5v174 q0 72 -17.5 114t-54 63.5t-93 27.5t-136.5 6h-475v-596z" />
<glyph unicode="S" horiz-adv-x="1460" d="M139 412v36.5t2 36.5h164v-28q0 -117 16.5 -186.5t69.5 -98.5q49 -29 152.5 -33t267.5 -4q117 0 190.5 14.5t110.5 55.5q37 39 37 198q0 70 -4 117t-20.5 77t-49.5 45t-92 20l-459 36q-98 8 -167.5 31t-113.5 68t-63.5 117.5t-19.5 179.5q0 121 23.5 202.5t86.5 137.5 q59 53 160.5 63t251.5 10h53q82 0 151.5 -2t128 -11t109 -29.5t90.5 -55.5q84 -72 84 -268v-35t-2 -37h-166v37q0 72 -8 119t-32 71q-39 39 -139.5 47.5t-272.5 8.5q-100 0 -167 -7.5t-106.5 -33t-57 -77.5t-17.5 -142q0 -66 8 -108t29.5 -68.5t57.5 -40t91 -17.5l469 -39 q94 -8 157.5 -33.5t102.5 -71.5t55.5 -115t16.5 -167q0 -117 -14.5 -199.5t-67.5 -142.5q-35 -41 -82 -62.5t-105.5 -32.5t-131 -13t-160.5 -2h-74q-145 0 -251.5 13t-182.5 81q-59 51 -84 134t-25 204z" />
<glyph unicode="T" horiz-adv-x="1069" d="M-23 1331v158h1115v-158h-476v-1331h-165v1331h-474z" />
<glyph unicode="U" horiz-adv-x="1531" d="M166 492v997h166v-977q0 -109 10 -178.5t59 -114.5q53 -47 122 -56t165 -9h156q96 0 165.5 9t123.5 56q47 43 57 112.5t10 180.5v977h166v-997q0 -143 -26.5 -240.5t-86 -158t-158 -86t-239.5 -25.5h-180q-141 0 -239.5 25.5t-158 86t-86 157.5t-26.5 241z" />
<glyph unicode="V" horiz-adv-x="1331" d="M2 1489h176l475 -1335l477 1335h175l-545 -1489h-213z" />
<glyph unicode="W" horiz-adv-x="2062" d="M61 1489h170l340 -1288l342 1288h234l344 -1288l340 1288h172l-406 -1489h-211l-356 1311l-350 -1311h-219z" />
<glyph unicode="X" horiz-adv-x="1304" d="M-14 0l583 782l-526 707h190l420 -584l418 584h193l-527 -705l580 -784h-187l-475 664l-481 -664h-188z" />
<glyph unicode="Y" horiz-adv-x="1218" d="M-88 1489h194l502 -694l502 694h195l-615 -827v-662h-162v659z" />
<glyph unicode="Z" horiz-adv-x="1331" d="M96 0v178l957 1163h-914v148h1088v-174l-951 -1159h951v-156h-1131z" />
<glyph unicode="[" horiz-adv-x="663" d="M152 0v1489h426v-158h-267v-1173h267v-158h-426z" />
<glyph unicode="\" horiz-adv-x="544" d="M-49 1507h141l529 -1697h-140z" />
<glyph unicode="]" horiz-adv-x="663" d="M86 0v158h266v1173h-266v158h426v-1489h-426z" />
<glyph unicode="^" horiz-adv-x="2048" d="M422 901l532 557h140l530 -557h-143l-457 455l-459 -455h-143z" />
<glyph unicode="_" horiz-adv-x="1024" d="M0 -383h1024v-100h-1024v100z" />
<glyph unicode="`" horiz-adv-x="1024" d="M276 1526h152l209 -348h-92z" />
<glyph unicode="a" d="M111 319q0 100 17 167t67 108q43 35 121.5 47t201.5 12q129 0 210 -21.5t122 -80.5v182q0 70 -12.5 111t-46 61.5t-92 26.5t-150.5 6q-66 0 -112 -5t-75.5 -21.5t-43 -45t-13.5 -73.5h-155v24q0 143 94 196.5t295 53.5q147 0 241 -12.5t142 -46.5q59 -47 71.5 -112 t12.5 -159v-737h-142l-6 111q-39 -70 -120 -97.5t-212 -27.5q-115 0 -194.5 13t-128.5 50t-70.5 102.5t-21.5 167.5zM274 338q0 -63 12.5 -103t43 -64t84 -32t133.5 -8q154 0 228.5 36t74.5 101v111q0 78 -80 111.5t-240 33.5q-74 0 -123 -8t-78.5 -28.5t-42 -56.5 t-12.5 -93z" />
<glyph unicode="b" horiz-adv-x="1175" d="M164 0v1489h155v-586q47 92 125 128t203 36q115 0 193 -22.5t126 -72.5t69.5 -129t21.5 -192v-250q0 -113 -21.5 -191.5t-69.5 -128.5t-126 -72.5t-193 -22.5q-133 0 -214 41t-120 135v-162h-149zM319 440q0 -166 76 -239.5t246 -73.5q86 0 136 15.5t76 50t34 94t8 149.5 v180q0 88 -8 148.5t-34 95.5t-76 50.5t-136 15.5q-170 0 -246 -74t-76 -240v-172z" />
<glyph unicode="c" d="M119 401v250q0 115 21.5 195t70.5 129t130 70.5t200 21.5h73q217 0 318.5 -84t105.5 -283h-161q-2 70 -17.5 113t-46.5 67.5t-80 34t-119 9.5h-73q-86 0 -138.5 -13.5t-79 -48.5t-34.5 -94t-8 -152v-180q0 -92 8 -151.5t34.5 -95t79 -49t138.5 -13.5h73q72 0 122 10 t81 38t45.5 75t14.5 121v18h161v-20q0 -209 -99 -296t-323 -87h-73q-119 0 -200 21.5t-131 70.5t-71.5 129t-21.5 194z" />
<glyph unicode="d" horiz-adv-x="1175" d="M119 401v250q0 113 21.5 192t69.5 129t127 72.5t193 22.5q125 0 202 -36t124 -128v586h156v-1489h-150v162q-39 -94 -118.5 -135t-213.5 -41q-115 0 -193.5 22.5t-126.5 72.5t-69.5 129t-21.5 191zM281 436q0 -90 8 -149.5t33.5 -94t76 -50t136.5 -15.5q170 0 245.5 73.5 t75.5 239.5v172q0 166 -75.5 240t-245.5 74q-86 0 -136.5 -15.5t-76 -50.5t-33.5 -95t-8 -149v-180z" />
<glyph unicode="e" d="M119 401v250q0 115 21.5 195t70.5 129t130 70.5t200 21.5h73q119 0 200 -21.5t131 -70.5t71.5 -129t21.5 -195v-159h-757q-2 -25 -2 -47.5v-43.5q0 -84 12 -137t41.5 -83.5t80 -42t128.5 -11.5h73q63 0 109.5 7t78.5 27.5t49 56.5t23 91h162q-12 -176 -113.5 -249.5 t-306.5 -73.5h-73q-119 0 -200 21.5t-131 70.5t-71.5 129t-21.5 194zM281 629h596v41q0 78 -13.5 127t-44.5 77.5t-81 39t-124 10.5h-73q-74 0 -124 -10.5t-81 -39t-43 -77.5t-12 -127v-41z" />
<glyph unicode="f" horiz-adv-x="688" d="M47 920v133h148q-2 18 -2 36.5v34.5q0 100 16 170t53 113t97.5 62.5t148.5 19.5q41 0 84 -2t90 -6v-142q-41 2 -74 3t-57 1q-70 0 -110 -10t-60.5 -35.5t-25.5 -67.5t-5 -106v-71h332v-133h-332v-920h-155v920h-148z" />
<glyph unicode="g" horiz-adv-x="1204" d="M150 401v250q0 113 21.5 192t69.5 129t125.5 72.5t192.5 22.5q133 0 214 -42t120 -136v164h149v-1041q0 -115 -21.5 -194.5t-69.5 -128.5t-127 -70.5t-193 -21.5h-72q-201 0 -298 73.5t-109 249.5h157q6 -55 22.5 -91t47.5 -55.5t76 -26.5t106 -7h70q129 0 192.5 41 t63.5 151v218q-47 -92 -125 -128t-203 -36q-115 0 -192.5 22.5t-125.5 72.5t-69.5 129t-21.5 191zM309 436q0 -90 8.5 -149.5t35 -94t76.5 -50t136 -15.5q170 0 246 73.5t76 239.5v172q0 166 -76 240t-246 74q-86 0 -136 -15.5t-76.5 -50.5t-35 -95t-8.5 -149v-180z" />
<glyph unicode="h" horiz-adv-x="1179" d="M162 0v1489h149v-580q39 82 123 120t221 38q104 0 176 -20.5t116 -65.5t62.5 -116.5t18.5 -174.5v-690h-156v657q0 76 -9 128.5t-34.5 83t-71.5 44t-122 13.5q-166 0 -242 -75t-76 -239v-612h-155z" />
<glyph unicode="i" horiz-adv-x="479" d="M162 0v1053h155v-1053h-155zM162 1313v176h155v-176h-155z" />
<glyph unicode="j" horiz-adv-x="507" d="M63 -274h54q53 0 64.5 50t11.5 154v1123h157v-1207q0 -249 -211 -249h-2q-29 0 -74 6v123zM193 1313v176h157v-176h-157z" />
<glyph unicode="k" horiz-adv-x="991" d="M162 0v1489h155v-846h48l344 410h178l-398 -469l476 -584h-197l-403 500h-48v-500h-155z" />
<glyph unicode="l" horiz-adv-x="479" d="M162 0v1489h155v-1489h-155z" />
<glyph unicode="m" horiz-adv-x="1810" d="M184 0v1053h152v-144q66 158 315 158q129 0 206 -39t116 -135q47 94 122.5 134t196.5 40q104 0 175 -19.5t113 -63.5t60.5 -116.5t18.5 -177.5v-690h-156v641q0 82 -8 136t-31.5 87t-67.5 47.5t-116 14.5q-150 0 -214.5 -76t-64.5 -238v-612h-151v713q0 61 -10.5 102 t-35 65.5t-66.5 35t-107 10.5q-152 0 -221.5 -76t-69.5 -238v-612h-156z" />
<glyph unicode="n" horiz-adv-x="1179" d="M162 0v1053h149v-144q39 82 123 120t221 38q104 0 176 -20.5t116 -65.5t62.5 -116.5t18.5 -174.5v-690h-156v657q0 76 -9 128.5t-34.5 83t-71.5 44t-122 13.5q-166 0 -242 -75t-76 -239v-612h-155z" />
<glyph unicode="o" d="M119 401v250q0 115 21.5 195t70.5 129t130 70.5t200 21.5h73q119 0 200 -21.5t131 -70.5t71.5 -129t21.5 -195v-250q0 -115 -21.5 -194.5t-70.5 -128.5t-130 -70.5t-200 -21.5h-73q-119 0 -200 21.5t-131 70.5t-71.5 129t-21.5 194zM281 436q0 -92 8 -151.5t34.5 -95 t79 -49t138.5 -13.5h73q86 0 138.5 13.5t80 49t36 95t8.5 151.5v180q0 92 -8.5 151.5t-36 94.5t-80 48.5t-138.5 13.5h-73q-86 0 -138.5 -13.5t-79 -48.5t-34.5 -94t-8 -152v-180z" />
<glyph unicode="p" horiz-adv-x="1175" d="M164 -403v1456h149v-164q39 94 120 136t214 42q115 0 193 -22.5t126 -72.5t69.5 -129t21.5 -192v-250q0 -113 -21.5 -191.5t-69.5 -128.5t-126 -72.5t-193 -22.5q-125 0 -202.5 35.5t-125.5 128.5v-553h-155zM319 440q0 -166 76 -239.5t246 -73.5q86 0 136 15.5t76 50 t34 94t8 149.5v180q0 88 -8 148.5t-34 95.5t-76 50.5t-136 15.5q-170 0 -246 -74t-76 -240v-172z" />
<glyph unicode="q" horiz-adv-x="1175" d="M119 401v250q0 113 21.5 192t69.5 129t127 72.5t193 22.5q133 0 213 -42t119 -136v164h150v-1456h-156v553q-47 -92 -124 -128t-202 -36q-115 0 -193.5 22.5t-126.5 72.5t-69.5 129t-21.5 191zM281 436q0 -90 8 -149.5t33.5 -94t76 -50t136.5 -15.5q170 0 245.5 73.5 t75.5 239.5v172q0 166 -75.5 240t-245.5 74q-86 0 -136.5 -15.5t-76 -50.5t-33.5 -95t-8 -149v-180z" />
<glyph unicode="r" horiz-adv-x="958" d="M160 0v1053h151v-144q35 84 104.5 121t184.5 37q88 0 148.5 -20.5t96.5 -66.5t51 -117.5t15 -172.5v-8h-157v31q0 61 -8.5 102t-30 65.5t-58 35t-94.5 10.5q-135 0 -190.5 -77t-55.5 -237v-612h-157z" />
<glyph unicode="s" horiz-adv-x="1193" d="M123 285v28h158v-24q0 -53 16 -87t53 -52.5t94.5 -24.5t137.5 -6t137 3t92 20.5t51.5 54t16.5 102.5q0 57 -10.5 91t-37 52.5t-70.5 25.5t-114 11q-160 8 -262 10.5t-143 24.5q-66 35 -88.5 95.5t-22.5 158.5t25.5 157.5t82 91.5t148.5 41t225 9q104 0 180 -10t125.5 -40 t73 -82t23.5 -134h-156v10q0 78 -71.5 100.5t-229.5 22.5q-82 0 -134 -5t-83 -22.5t-42 -50.5t-11 -88q0 -49 6 -79t35 -46q43 -23 109.5 -25t160.5 -6q123 -4 202 -12t113 -25q74 -35 101.5 -96t27.5 -170t-26.5 -171t-106.5 -111q-37 -23 -117.5 -32t-207.5 -9 q-121 0 -208 10t-143.5 42t-83 91t-26.5 156z" />
<glyph unicode="t" horiz-adv-x="1009" d="M57 920v133h129v237h156v-237h516v-133h-516v-580q0 -61 9 -102t32 -66t59.5 -35t94.5 -10q57 0 95 10t59.5 35t29.5 66t8 102v31h158v-9q0 -119 -18.5 -192.5t-62.5 -114.5t-117 -55t-181 -14q-92 0 -154.5 20.5t-99.5 64.5t-52.5 115.5t-15.5 175.5v558h-129z" />
<glyph unicode="u" horiz-adv-x="1179" d="M152 362v691h155v-658q0 -78 9.5 -129t35 -81.5t72.5 -44t123 -13.5q166 0 240.5 74.5t74.5 238.5v613h158v-1053h-150v143q-39 -82 -123.5 -119.5t-222.5 -37.5q-104 0 -176 20.5t-116 65.5t-62 116.5t-18 173.5z" />
<glyph unicode="v" horiz-adv-x="966" d="M14 1053h156l313 -906l314 906h151l-362 -1053h-203z" />
<glyph unicode="w" horiz-adv-x="1597" d="M59 1053h146l241 -906l242 906h215l244 -906l242 906h149l-285 -1053h-215l-241 903l-246 -903h-211z" />
<glyph unicode="x" horiz-adv-x="1036" d="M35 0l399 563l-348 490h176l254 -369l254 369h176l-344 -490l399 -563h-176l-309 444l-303 -444h-178z" />
<glyph unicode="y" horiz-adv-x="999" d="M47 1053h156l313 -906l311 906h154l-397 -1145q-29 -82 -57.5 -142.5t-64.5 -99.5t-82 -57.5t-110 -18.5q-37 0 -82 7v137q12 -2 24.5 -2h23.5q39 0 66.5 8t49 27.5t38 50t32.5 73.5l39 109h-47z" />
<glyph unicode="z" horiz-adv-x="1056" d="M119 0v170l651 739h-620v144h811v-146l-674 -766h674v-141h-842z" />
<glyph unicode="{" horiz-adv-x="1024" d="M174 477v109q12 0 23.5 -1t21.5 -1q139 0 195.5 64.5t56.5 215.5v242q0 104 13.5 175t50 115t102 62.5t170.5 18.5h47v-107h-37q-72 0 -115 -13.5t-67.5 -43t-32.5 -77.5t-8 -120v-242q0 -74 -8 -131t-29.5 -98t-59.5 -68.5t-100 -46.5q61 -18 99.5 -45.5t60 -69.5 t29.5 -98.5t8 -130.5v-241q0 -72 8 -120t30.5 -78t65.5 -43t111 -13q10 0 21.5 1t23.5 1v-107h-47q-104 0 -170 18.5t-102.5 61.5t-50 113.5t-13.5 175.5v244q0 152 -56.5 216t-195.5 64q-10 0 -21.5 -1t-23.5 -1z" />
<glyph unicode="|" horiz-adv-x="1024" d="M459 -483v2048h108v-2048h-108z" />
<glyph unicode="}" horiz-adv-x="1024" d="M172 -307h39q70 0 113 12t67.5 41t32.5 78t8 121v241q0 74 7 130.5t28.5 98.5t60.5 69.5t101 45.5q-61 18 -100.5 46t-61 69t-28.5 98.5t-7 130.5v242q0 72 -8 121t-30.5 79t-65.5 43t-111 13q-10 0 -21.5 -1t-23.5 -1v107h47q104 0 170 -18.5t102.5 -62.5t50 -115 t13.5 -175v-242q0 -152 56.5 -216t195.5 -64q10 0 21.5 1t23.5 1v-109q-12 0 -23.5 1t-21.5 1q-139 0 -195.5 -64.5t-56.5 -215.5v-244q0 -104 -13.5 -175t-50 -114t-102 -61.5t-170.5 -18.5h-47v107z" />
<glyph unicode="~" horiz-adv-x="1705" d="M178 471v113q211 145 387 145q84 0 152.5 -21.5t136.5 -45.5q74 -27 143.5 -49.5t145.5 -22.5q92 0 185 41t202 119v-113q-201 -143 -387 -143q-84 0 -153.5 22.5t-135.5 44.5q-72 27 -141.5 48.5t-147.5 21.5q-92 0 -184 -41t-203 -119z" />
<glyph unicode="&#xa1;" horiz-adv-x="516" d="M180 0l10 1087h138l8 -1087h-156zM180 1296v193h156v-193h-156z" />
<glyph unicode="&#xa2;" horiz-adv-x="1384" d="M178 401v250q0 115 21.5 195t70.5 129t130 70.5t200 21.5h148l65 199h143l-73 -222q213 -72 215 -344h-162q-6 178 -98 203l-256 -776h92q72 0 122 10t80.5 38t45 75t14.5 121v18h162v-20q0 -207 -100.5 -295t-323.5 -88h-139l-82 -248h-144l88 268q-127 41 -173 135.5 t-46 259.5zM338 436q0 -59 3 -106t13.5 -83t32 -60.5t57.5 -39.5l256 777h-100q-86 0 -138 -13.5t-80 -48.5t-36 -94t-8 -152v-180z" />
<glyph unicode="&#xa3;" horiz-adv-x="1384" d="M115 0v156h20q96 0 134 59t38 195v184h-192v143h192v426q0 186 110.5 265t352.5 79q252 0 369.5 -67.5t117.5 -229.5v-155h-170v92q0 59 -13 99t-47 63.5t-93.5 34t-151.5 10.5q-186 0 -254 -49q-41 -31 -48 -78t-7 -117v-373h438v-143h-438v-182q0 -219 -94 -256h899 v-156h-1163z" />
<glyph unicode="&#xa4;" horiz-adv-x="1241" d="M90 420l205 207q-43 59 -66.5 122.5t-23.5 135.5t23.5 136t66.5 124l-205 205l66 65l204 -205q119 90 261 90q147 0 262 -90l204 205l66 -65l-205 -205q88 -119 88 -260q0 -139 -88 -258l205 -207l-66 -66l-204 205q-119 -90 -262 -90q-139 0 -261 90l-204 -205zM297 887 q0 -68 25.5 -126.5t70.5 -103.5t103.5 -70.5t126.5 -25.5t126 25.5t102 70.5t68.5 104.5t24.5 125.5t-24.5 124t-68.5 102t-102.5 69.5t-125.5 25.5q-68 0 -126.5 -25.5t-103.5 -69.5t-70.5 -102.5t-25.5 -123.5z" />
<glyph unicode="&#xa5;" horiz-adv-x="1218" d="M-88 1489h194l502 -694l502 694h195l-304 -410h218v-123h-320l-131 -180h451v-123h-529v-653h-162v653h-528v123h449l-132 180h-317v123h217z" />
<glyph unicode="&#xa6;" horiz-adv-x="1024" d="M459 -350v758h108v-758h-108zM459 674v758h108v-758h-108z" />
<glyph unicode="&#xa7;" horiz-adv-x="1118" d="M63 770q0 92 58.5 154.5t167.5 81.5q-78 29 -112 83t-34 152q0 82 22.5 134t71 81t123 40t181.5 11q190 0 280 -50t90 -183v-47h-157v24q0 74 -53.5 94.5t-172.5 20.5q-63 0 -106 -3t-68.5 -14.5t-37 -34t-11.5 -61.5q0 -55 20.5 -80.5t75.5 -44.5l447 -145 q207 -68 207 -244q0 -92 -60.5 -155.5t-169.5 -75.5q80 -25 109 -82t29 -166q0 -86 -21.5 -140t-70 -85t-125 -42t-185.5 -11q-104 0 -182 9t-129 35.5t-77 72.5t-26 118v70h158v-49q0 -39 14.5 -61.5t44 -35t76.5 -15.5t113 -3q70 0 117 3t75.5 17.5t42 41t13.5 73.5 q0 53 -19.5 84t-72.5 47l-373 121q-139 45 -206 102.5t-67 157.5zM223 803q0 -98 160 -150l297 -96q106 20 160.5 61t54.5 95q0 96 -160 147l-297 98q-106 -20 -160.5 -61t-54.5 -94z" />
<glyph unicode="&#xa8;" horiz-adv-x="1024" d="M281 1253v164h141v-164h-141zM602 1253v164h141v-164h-141z" />
<glyph unicode="&#xa9;" horiz-adv-x="1705" d="M121 723q0 147 56 280.5t163 241.5q102 104 232 157.5t280 53.5t284 -55t238 -160q104 -104 157.5 -237.5t53.5 -280.5q0 -152 -53 -282t-158 -232q-109 -106 -243 -162.5t-279 -56.5t-277.5 55t-238.5 162q-104 104 -159.5 236t-55.5 280zM201 723q0 -129 49 -247 t143 -212t212 -143t247 -49t249 49t218 145q92 90 139 206t47 251q0 133 -48 251t-140 210q-94 94 -212 143t-253 49q-133 0 -249 -48t-208 -140q-96 -98 -145 -217t-49 -248zM469 727q0 104 28.5 187t81 141.5t124 89.5t157.5 31q135 0 226.5 -72t103.5 -189h-117 q-18 80 -74.5 124t-142.5 44q-121 0 -189.5 -93t-68.5 -269q0 -170 69.5 -262t188.5 -92q90 0 151.5 50t77.5 138h115q-6 -61 -33.5 -113.5t-73.5 -90.5t-108.5 -59.5t-134.5 -21.5q-174 0 -277.5 120t-103.5 337z" />
<glyph unicode="&#xaa;" horiz-adv-x="868" d="M84 975q0 72 12.5 118t48.5 74q33 25 92.5 33t151.5 8q98 0 157.5 -14t90.5 -57v129q0 49 -9.5 76.5t-34 43t-68.5 19.5t-113 4q-98 0 -139.5 -18.5t-43.5 -83.5h-116v16q0 100 69.5 138t220.5 38q111 0 182.5 -9t106.5 -34q45 -33 53.5 -78t8.5 -110v-516h-105l-6 77 q-29 -49 -89 -68.5t-159 -19.5q-86 0 -145.5 9.5t-96 35t-53 71.5t-16.5 118zM207 987q0 -43 9 -71.5t31.5 -44t62.5 -21.5t100 -6q227 0 227 96v76q0 55 -59.5 78.5t-180.5 23.5q-111 0 -150.5 -25.5t-39.5 -105.5z" />
<glyph unicode="&#xab;" horiz-adv-x="980" d="M98 526l246 314h172l-248 -314l248 -313h-172zM449 526l245 314h172l-248 -314l248 -313h-172z" />
<glyph unicode="&#xac;" horiz-adv-x="1705" d="M254 758v100h1198v-502h-96v402h-1102z" />
<glyph unicode="&#xad;" horiz-adv-x="825" d="M133 485v140h559v-140h-559z" />
<glyph unicode="&#xae;" horiz-adv-x="1705" d="M121 723q0 145 56 279.5t163 242.5q102 104 232 157.5t280 53.5q152 0 285 -54t237 -161q104 -104 157.5 -237.5t53.5 -280.5q0 -152 -53 -282t-158 -232q-109 -106 -243 -162.5t-279 -56.5q-147 0 -279.5 55t-236.5 162q-104 104 -159.5 236t-55.5 280zM201 723 q0 -129 49 -247t143 -212t212 -143t247 -49t249 49t218 145q92 90 139 205t47 250t-47 253t-139 210q-94 94 -213 143t-254 49q-133 0 -248 -48t-207 -140q-96 -98 -146 -217t-50 -248zM565 313v844h309q176 0 262.5 -55t86.5 -178q0 -88 -53.5 -148.5t-145.5 -73.5 l188 -389h-145l-178 371h-197v-371h-127zM692 768h158q125 0 183.5 30.5t58.5 116.5t-58.5 121t-183.5 35h-158v-303z" />
<glyph unicode="&#xaf;" horiz-adv-x="1024" d="M256 1278v117h512v-117h-512z" />
<glyph unicode="&#xb0;" horiz-adv-x="673" d="M59 1174q0 57 21.5 108t59.5 89t89.5 59.5t108.5 21.5t107.5 -21.5t88 -59.5t59 -89t21.5 -108t-21.5 -107.5t-59 -88.5t-89 -60.5t-108.5 -22.5q-59 0 -109.5 21.5t-87.5 59.5t-58.5 88t-21.5 110zM129 1174q0 -43 16.5 -81t45 -66t66.5 -44t81 -16t81 16t65.5 44t44 66 t16.5 81t-16.5 80.5t-44 66.5t-65.5 45t-81 16t-81 -16t-66.5 -45t-45 -66.5t-16.5 -80.5z" />
<glyph unicode="&#xb1;" horiz-adv-x="1705" d="M254 51v99h1198v-99h-1198zM254 723v98h551v348h98v-348h549v-98h-549v-348h-98v348h-551z" />
<glyph unicode="&#xb2;" horiz-adv-x="913" d="M98 596v152q0 57 9.5 101t42.5 79q35 37 83 54t111 34l223 55q104 29 129 62q12 16 14.5 44.5t2.5 71.5q0 49 -6.5 81t-34.5 52q-39 27 -242 27q-66 0 -108.5 -5t-67.5 -20.5t-34 -45t-9 -78.5v-54h-113v60q0 72 19.5 118t60.5 71.5t104.5 35.5t153.5 10q98 0 160.5 -4 t97.5 -18q43 -16 67.5 -38t38 -49.5t17.5 -64.5t4 -86q0 -57 -7 -98t-28.5 -71t-59.5 -50.5t-101 -36.5l-275 -70q-72 -18 -105.5 -40.5t-33.5 -86.5v-98h610v-94h-723z" />
<glyph unicode="&#xb3;" horiz-adv-x="913" d="M96 821v72h109v-80q0 -47 14 -73.5t46 -41t81 -17.5t119 -3q92 0 148.5 7t80.5 40q12 16 15.5 52t3.5 91q0 35 -6.5 60.5t-24.5 43t-52 26t-89 8.5h-150v90h135q55 0 88 8t50.5 27.5t23.5 50t6 73.5q0 47 -4 78t-28 49q-33 25 -218 25q-61 0 -103 -3t-68.5 -15.5t-38 -36 t-11.5 -62.5v-82h-110v80q0 121 79.5 167t249.5 46q94 0 159 -5t104 -21q63 -29 82.5 -78t19.5 -135q0 -94 -25.5 -142.5t-111.5 -64.5q90 -16 121.5 -61.5t31.5 -135.5q0 -53 -5 -94t-21 -76q-31 -68 -111 -85t-219 -17q-104 0 -178 6t-121 45q-39 33 -55.5 78t-16.5 106z " />
<glyph unicode="&#xb4;" horiz-adv-x="1024" d="M387 1178l209 348h152l-269 -348h-92z" />
<glyph unicode="&#xb6;" horiz-adv-x="1024" d="M84 1130q0 76 27.5 140.5t79 110.5t124 72t162.5 26h463v-70h-127v-1409h-82v1409h-188v-1409h-82v782q-178 8 -277.5 103.5t-99.5 244.5z" />
<glyph unicode="&#xb7;" horiz-adv-x="692" d="M227 795q0 49 35 83.5t84 34.5t84 -34.5t35 -83.5t-35 -83t-84 -34t-84 34t-35 83z" />
<glyph unicode="&#xb8;" horiz-adv-x="1024" d="M324 -371h213q27 0 43 3t23 12.5t9 29t2 52.5t-2 51t-10 26.5t-24.5 10.5t-42.5 2h-78v184h65v-115h64q51 0 81.5 -6t46 -24.5t19.5 -50t4 -83.5q0 -57 -4 -92t-19.5 -54t-45 -26.5t-80.5 -7.5h-264v88z" />
<glyph unicode="&#xb9;" horiz-adv-x="913" d="M184 1249l265 240h141v-893h-107v805l-231 -211z" />
<glyph unicode="&#xba;" horiz-adv-x="868" d="M90 1032v176q0 80 16.5 136.5t53.5 90t97 49t149 15.5h55q88 0 149.5 -15.5t98 -49t53 -90t16.5 -136.5v-176q0 -80 -16.5 -136t-53 -90t-97 -49.5t-148.5 -15.5h-55q-90 0 -150.5 15.5t-97.5 49.5t-53.5 90t-16.5 136zM211 1057q0 -66 6 -108t25.5 -66.5t58.5 -33.5 t105 -9h55q66 0 104.5 9t59 33.5t26.5 66.5t6 108v127q0 63 -6 105t-26.5 66.5t-59.5 34t-104 9.5h-55q-66 0 -105 -9.5t-58.5 -34t-25.5 -66.5t-6 -105v-127z" />
<glyph unicode="&#xbb;" horiz-adv-x="980" d="M115 213l247 313l-247 314h172l245 -314l-245 -313h-172zM467 213l246 313l-246 314h170l246 -314l-246 -313h-170z" />
<glyph unicode="&#xbc;" horiz-adv-x="2086" d="M176 1266l252 223h135v-834h-102v752l-221 -199zM530 -18l869 1525h155l-866 -1525h-158zM1286 195v106l459 533h143v-551h144v-88h-144v-195h-104v195h-498zM1386 283h398v458z" />
<glyph unicode="&#xbd;" horiz-adv-x="2086" d="M176 1266l252 223h135v-834h-102v752l-221 -199zM530 -18l869 1525h155l-866 -1525h-158zM1309 0v141q0 53 9 94t40 74q33 35 80 51.5t106 32.5l211 51q102 25 123 56q14 16 16 42.5t2 67.5q0 47 -6 76t-35 47q-33 25 -231 25q-63 0 -103 -4t-63.5 -19.5t-33 -43 t-9.5 -73.5v-49h-106v56q0 68 18.5 110.5t56 66t99 33t147.5 9.5q92 0 153.5 -4t94.5 -17q39 -16 63.5 -35.5t37 -46t16.5 -60.5t4 -79q0 -53 -7 -91t-26.5 -65.5t-56.5 -47t-99 -33.5l-262 -66q-68 -18 -100.5 -39.5t-32.5 -81.5v-90h584v-88h-690z" />
<glyph unicode="&#xbe;" horiz-adv-x="2086" d="M92 866v66h105v-74q0 -43 13 -68.5t43 -39t77 -16.5t114 -3q88 0 142.5 7t77.5 38q10 16 13 48t3 85q0 33 -5 57.5t-22.5 40t-50.5 22.5t-86 7h-143v86h131q51 0 82.5 8.5t48 26t23 46t6.5 69.5q0 43 -4.5 71.5t-28.5 45.5q-31 25 -207 24q-117 0 -164 -18.5t-47 -91.5 v-76h-104v73q0 115 75.5 157t237.5 42q92 0 153.5 -4t96.5 -20q61 -25 79.5 -72t18.5 -125q0 -45 -5 -78t-19.5 -55.5t-40 -37.5t-66.5 -24q88 -16 117.5 -57t29.5 -127q0 -49 -5 -88t-19 -70q-31 -63 -106.5 -79.5t-209.5 -16.5q-102 0 -170.5 6t-115.5 43q-37 31 -52.5 73 t-15.5 99zM530 -18l869 1525h155l-866 -1525h-158zM1286 195v106l459 533h143v-551h144v-88h-144v-195h-104v195h-498zM1386 283h398v458z" />
<glyph unicode="&#xbf;" horiz-adv-x="1062" d="M57 375q0 86 8.5 151.5t28 113.5t54 83t88.5 59q68 31 120 53.5t87.5 45t53 51.5t17.5 74v75h166v-118q0 -59 -16.5 -98.5t-47 -68t-74.5 -51t-100 -47.5q-68 -29 -114.5 -53t-71.5 -59q-18 -29 -28.5 -81t-10.5 -134q0 -74 12.5 -119t41 -71.5t74.5 -36t112 -9.5 q125 0 201.5 6t107.5 29q33 25 44 75t11 130v41.5t-2 44.5h164v-148q0 -98 -28.5 -161.5t-87 -101.5t-147.5 -53t-212 -15t-209 16t-139.5 60t-78 120t-24.5 197zM514 1298v191h166v-191h-166z" />
<glyph unicode="&#xc0;" horiz-adv-x="1417" d="M23 0l550 1489h271l553 -1489h-170l-142 381h-753l-139 -381h-170zM387 528h645l-297 803h-53zM473 1966h152l209 -348h-92z" />
<glyph unicode="&#xc1;" horiz-adv-x="1417" d="M23 0l550 1489h271l553 -1489h-170l-142 381h-753l-139 -381h-170zM387 528h645l-297 803h-53zM584 1618l209 348h152l-269 -348h-92z" />
<glyph unicode="&#xc2;" horiz-adv-x="1417" d="M23 0l550 1489h271l553 -1489h-170l-142 381h-753l-139 -381h-170zM387 528h645l-297 803h-53zM433 1618l200 348h152l200 -348h-92l-184 262l-184 -262h-92z" />
<glyph unicode="&#xc3;" horiz-adv-x="1417" d="M23 0l550 1489h271l553 -1489h-170l-142 381h-753l-139 -381h-170zM387 528h645l-297 803h-53zM420 1675q23 90 73 136t122 46q31 0 53 -8l96 -31q16 -6 30.5 -8t25.5 -2q66 0 96 72h82q-51 -180 -191 -180q-29 0 -65 10l-96 28q-31 10 -54 11q-59 0 -92 -74h-80z" />
<glyph unicode="&#xc4;" horiz-adv-x="1417" d="M23 0l550 1489h271l553 -1489h-170l-142 381h-753l-139 -381h-170zM387 528h645l-297 803h-53zM478 1693v164h141v-164h-141zM799 1693v164h141v-164h-141z" />
<glyph unicode="&#xc5;" horiz-adv-x="1417" d="M23 0l550 1489h271l553 -1489h-170l-142 381h-753l-139 -381h-170zM387 528h645l-297 803h-53zM473 1786q0 51 18.5 95t50 77t76 51.5t95.5 18.5t95 -18.5t77 -51.5t51 -77t18 -95t-18 -95t-51 -76t-77 -50.5t-95 -18.5t-95.5 18.5t-76 50.5t-50 76t-18.5 95zM563 1786 q0 -63 44 -106.5t108 -43.5q61 0 105 43t44 107q0 63 -43 106t-106 43t-107.5 -43t-44.5 -106z" />
<glyph unicode="&#xc6;" horiz-adv-x="2078" d="M-166 0l823 1489h1338v-158h-887v-487h862v-152h-862v-536h887v-156h-1041v371h-741l-203 -371h-176zM301 528h653v803h-209z" />
<glyph unicode="&#xc7;" horiz-adv-x="1398" d="M133 492v505q0 141 25.5 239.5t84 158t152.5 86t234 26.5h174q131 0 225 -21.5t154.5 -70.5t89 -130t28.5 -202v-65h-170v41q0 90 -17 147.5t-57 89t-105.5 44t-159.5 12.5h-115q-102 0 -174 -11.5t-125 -60.5q-53 -51 -63.5 -129t-10.5 -195v-424q0 -117 10.5 -194.5 t63.5 -128.5q55 -53 128 -62.5t171 -9.5h115q98 0 163.5 12.5t105.5 47t56.5 96t16.5 158.5v34.5t-3 36.5h170v-98q0 -129 -26.5 -214t-86 -135t-153.5 -71.5t-231 -21.5h-174q-139 0 -233.5 26.5t-153 86t-84 157.5t-25.5 240zM537 -371h213q27 0 43 3t23 12.5t9 29t2 52.5 t-2 51t-10 26.5t-24.5 10.5t-42.5 2h-78v184h65v-115h64q51 0 81.5 -6t46 -24.5t19.5 -50t4 -83.5q0 -57 -4 -92t-19.5 -54t-45 -26.5t-80.5 -7.5h-264v88z" />
<glyph unicode="&#xc8;" horiz-adv-x="1308" d="M180 0v1489h1045v-158h-881v-487h856v-152h-856v-536h881v-156h-1045zM497 1966h152l209 -348h-92z" />
<glyph unicode="&#xc9;" horiz-adv-x="1308" d="M180 0v1489h1045v-158h-881v-487h856v-152h-856v-536h881v-156h-1045zM608 1618l209 348h152l-269 -348h-92z" />
<glyph unicode="&#xca;" horiz-adv-x="1308" d="M180 0v1489h1045v-158h-881v-487h856v-152h-856v-536h881v-156h-1045zM457 1618l200 348h152l200 -348h-92l-184 262l-184 -262h-92z" />
<glyph unicode="&#xcb;" horiz-adv-x="1308" d="M180 0v1489h1045v-158h-881v-487h856v-152h-856v-536h881v-156h-1045zM502 1693v164h141v-164h-141zM823 1693v164h141v-164h-141z" />
<glyph unicode="&#xcc;" horiz-adv-x="526" d="M30 1966h152l209 -348h-92zM180 0v1489h166v-1489h-166z" />
<glyph unicode="&#xcd;" horiz-adv-x="526" d="M141 1618l209 348h152l-269 -348h-92zM180 0v1489h166v-1489h-166z" />
<glyph unicode="&#xce;" horiz-adv-x="526" d="M-10 1618l200 348h152l200 -348h-92l-184 262l-184 -262h-92zM180 0v1489h166v-1489h-166z" />
<glyph unicode="&#xcf;" horiz-adv-x="526" d="M35 1693v164h141v-164h-141zM180 0v1489h166v-1489h-166zM356 1693v164h141v-164h-141z" />
<glyph unicode="&#xd0;" horiz-adv-x="1583" d="M0 709v143h227v637h719q141 0 237.5 -26.5t156 -85t86 -154t26.5 -232.5v-491q0 -137 -26.5 -232.5t-86 -155t-156 -86t-237.5 -26.5h-719v709h-227zM391 147h531q104 0 172.5 15.5t109.5 54.5t58.5 106.5t17.5 174.5v481q0 109 -16.5 179.5t-56.5 111.5t-109.5 56 t-175.5 15h-531v-489h447v-143h-447v-562z" />
<glyph unicode="&#xd1;" horiz-adv-x="1587" d="M180 0v1489h254l807 -1329v1329h164v-1489h-254l-807 1331v-1331h-164zM526 1675q23 90 73 136t122 46q31 0 53 -8l96 -31q16 -6 30.5 -8t25.5 -2q66 0 96 72h82q-51 -180 -191 -180q-29 0 -65 10l-96 28q-31 10 -54 11q-59 0 -92 -74h-80z" />
<glyph unicode="&#xd2;" horiz-adv-x="1525" d="M133 492v505q0 143 27.5 240.5t91 158t166 86t252.5 25.5h188q150 0 253 -25.5t165.5 -85t90.5 -156.5t28 -243v-505q0 -143 -28 -240.5t-91.5 -158t-165.5 -86t-252 -25.5h-188q-150 0 -252.5 25.5t-166 86t-91 157.5t-27.5 241zM303 532q0 -121 12.5 -197.5 t67.5 -123.5q63 -53 143 -63.5t191 -10.5h92q111 0 191.5 10.5t144.5 63.5q55 47 66.5 125t11.5 196v424q0 119 -12.5 198t-67.5 126q-61 53 -142 62.5t-192 9.5h-92q-111 0 -191 -10.5t-143 -63.5q-55 -47 -67.5 -125t-12.5 -199v-422zM528 1966h152l209 -348h-92z" />
<glyph unicode="&#xd3;" horiz-adv-x="1525" d="M133 492v505q0 143 27.5 240.5t91 158t166 86t252.5 25.5h188q150 0 253 -25.5t165.5 -85t90.5 -156.5t28 -243v-505q0 -143 -28 -240.5t-91.5 -158t-165.5 -86t-252 -25.5h-188q-150 0 -252.5 25.5t-166 86t-91 157.5t-27.5 241zM303 532q0 -121 12.5 -197.5 t67.5 -123.5q63 -53 143 -63.5t191 -10.5h92q111 0 191.5 10.5t144.5 63.5q55 47 66.5 125t11.5 196v424q0 119 -12.5 198t-67.5 126q-61 53 -142 62.5t-192 9.5h-92q-111 0 -191 -10.5t-143 -63.5q-55 -47 -67.5 -125t-12.5 -199v-422zM639 1618l209 348h152l-269 -348h-92 z" />
<glyph unicode="&#xd4;" horiz-adv-x="1525" d="M133 492v505q0 143 27.5 240.5t91 158t166 86t252.5 25.5h188q150 0 253 -25.5t165.5 -85t90.5 -156.5t28 -243v-505q0 -143 -28 -240.5t-91.5 -158t-165.5 -86t-252 -25.5h-188q-150 0 -252.5 25.5t-166 86t-91 157.5t-27.5 241zM303 532q0 -121 12.5 -197.5 t67.5 -123.5q63 -53 143 -63.5t191 -10.5h92q111 0 191.5 10.5t144.5 63.5q55 47 66.5 125t11.5 196v424q0 119 -12.5 198t-67.5 126q-61 53 -142 62.5t-192 9.5h-92q-111 0 -191 -10.5t-143 -63.5q-55 -47 -67.5 -125t-12.5 -199v-422zM488 1618l200 348h152l200 -348h-92 l-184 262l-184 -262h-92z" />
<glyph unicode="&#xd5;" horiz-adv-x="1525" d="M133 492v505q0 143 27.5 240.5t91 158t166 86t252.5 25.5h188q150 0 253 -25.5t165.5 -85t90.5 -156.5t28 -243v-505q0 -143 -28 -240.5t-91.5 -158t-165.5 -86t-252 -25.5h-188q-150 0 -252.5 25.5t-166 86t-91 157.5t-27.5 241zM303 532q0 -121 12.5 -197.5 t67.5 -123.5q63 -53 143 -63.5t191 -10.5h92q111 0 191.5 10.5t144.5 63.5q55 47 66.5 125t11.5 196v424q0 119 -12.5 198t-67.5 126q-61 53 -142 62.5t-192 9.5h-92q-111 0 -191 -10.5t-143 -63.5q-55 -47 -67.5 -125t-12.5 -199v-422zM475 1675q23 90 73 136t122 46 q31 0 53 -8l96 -31q16 -6 30.5 -8t25.5 -2q66 0 96 72h82q-51 -180 -191 -180q-29 0 -65 10l-96 28q-31 10 -54 11q-59 0 -92 -74h-80z" />
<glyph unicode="&#xd6;" horiz-adv-x="1525" d="M133 492v505q0 143 27.5 240.5t91 158t166 86t252.5 25.5h188q150 0 253 -25.5t165.5 -85t90.5 -156.5t28 -243v-505q0 -143 -28 -240.5t-91.5 -158t-165.5 -86t-252 -25.5h-188q-150 0 -252.5 25.5t-166 86t-91 157.5t-27.5 241zM303 532q0 -121 12.5 -197.5 t67.5 -123.5q63 -53 143 -63.5t191 -10.5h92q111 0 191.5 10.5t144.5 63.5q55 47 66.5 125t11.5 196v424q0 119 -12.5 198t-67.5 126q-61 53 -142 62.5t-192 9.5h-92q-111 0 -191 -10.5t-143 -63.5q-55 -47 -67.5 -125t-12.5 -199v-422zM533 1693v164h141v-164h-141z M854 1693v164h141v-164h-141z" />
<glyph unicode="&#xd7;" horiz-adv-x="1705" d="M305 129l481 481l-481 482l70 69l481 -481l481 481l70 -69l-481 -482l481 -481l-70 -70l-481 482l-481 -482z" />
<glyph unicode="&#xd8;" horiz-adv-x="1525" d="M131 6l92 125q-55 57 -72.5 144t-17.5 217v505q0 143 27.5 240.5t91 158t166 86t252.5 25.5h188q98 0 179 -8t153 -43l86 119l119 -90l-88 -121q53 -70 70.5 -159t17.5 -208v-505q0 -143 -28 -240.5t-91.5 -158t-165.5 -86t-252 -25.5h-188q-113 0 -194 9t-136 44 l-88 -121zM303 498q0 -66 3 -124.5t13 -113.5l781 1071q-37 12 -100.5 16.5t-153.5 4.5h-166q-100 0 -174 -9.5t-131 -56.5q-51 -43 -61.5 -113.5t-10.5 -181.5v-493zM426 156q57 -12 120.5 -15.5t133.5 -3.5h166q100 0 174 9.5t131 56.5q51 43 61.5 113.5t10.5 181.5v493 q0 147 -13 238z" />
<glyph unicode="&#xd9;" horiz-adv-x="1531" d="M166 492v997h166v-977q0 -109 10 -178.5t59 -114.5q53 -47 122 -56t165 -9h156q96 0 165.5 9t123.5 56q47 43 57 112.5t10 180.5v977h166v-997q0 -143 -26.5 -240.5t-86 -158t-158 -86t-239.5 -25.5h-180q-141 0 -239.5 25.5t-158 86t-86 157.5t-26.5 241zM530 1966h152 l209 -348h-92z" />
<glyph unicode="&#xda;" horiz-adv-x="1531" d="M166 492v997h166v-977q0 -109 10 -178.5t59 -114.5q53 -47 122 -56t165 -9h156q96 0 165.5 9t123.5 56q47 43 57 112.5t10 180.5v977h166v-997q0 -143 -26.5 -240.5t-86 -158t-158 -86t-239.5 -25.5h-180q-141 0 -239.5 25.5t-158 86t-86 157.5t-26.5 241zM641 1618 l209 348h152l-269 -348h-92z" />
<glyph unicode="&#xdb;" horiz-adv-x="1531" d="M166 492v997h166v-977q0 -109 10 -178.5t59 -114.5q53 -47 122 -56t165 -9h156q96 0 165.5 9t123.5 56q47 43 57 112.5t10 180.5v977h166v-997q0 -143 -26.5 -240.5t-86 -158t-158 -86t-239.5 -25.5h-180q-141 0 -239.5 25.5t-158 86t-86 157.5t-26.5 241zM490 1618 l200 348h152l200 -348h-92l-184 262l-184 -262h-92z" />
<glyph unicode="&#xdc;" horiz-adv-x="1531" d="M166 492v997h166v-977q0 -109 10 -178.5t59 -114.5q53 -47 122 -56t165 -9h156q96 0 165.5 9t123.5 56q47 43 57 112.5t10 180.5v977h166v-997q0 -143 -26.5 -240.5t-86 -158t-158 -86t-239.5 -25.5h-180q-141 0 -239.5 25.5t-158 86t-86 157.5t-26.5 241zM535 1693v164 h141v-164h-141zM856 1693v164h141v-164h-141z" />
<glyph unicode="&#xdd;" horiz-adv-x="1218" d="M-88 1489h194l502 -694l502 694h195l-615 -827v-662h-162v659zM485 1618l209 348h152l-269 -348h-92z" />
<glyph unicode="&#xde;" horiz-adv-x="1341" d="M180 0v1489h164v-289h463q119 0 203 -15.5t137 -54t76.5 -104t23.5 -166.5v-227q0 -102 -23.5 -169t-75.5 -106t-136 -54t-205 -15h-463v-289h-164zM344 446h461q68 0 119 6.5t84.5 26t50 56t16.5 100.5v219q0 63 -15.5 100t-48 56.5t-83.5 25.5t-123 6h-461v-596z" />
<glyph unicode="&#xdf;" horiz-adv-x="1081" d="M127 0v1069q0 115 19.5 193.5t65.5 128t122 71t190 21.5q109 0 185.5 -20.5t126 -65.5t72 -117t22.5 -176q0 -115 -38 -179.5t-134 -99.5q70 -14 115 -43.5t71.5 -79t37.5 -117t11 -159.5q0 -117 -18.5 -201t-61.5 -137t-112.5 -78.5t-169.5 -25.5q-68 0 -156 12v143 q59 -14 127 -14q70 0 115 14.5t69.5 49t33.5 92t9 145.5t-6 148.5t-30.5 98.5t-72.5 54t-130 16h-115v129h88q121 0 165 55.5t44 188.5q0 68 -13.5 111t-42 69.5t-76.5 36.5t-118 10q-80 0 -128 -15t-72.5 -49t-31.5 -89t-7 -137v-1053h-156z" />
<glyph unicode="&#xe0;" d="M111 319q0 100 17 167t67 108q43 35 121.5 47t201.5 12q129 0 210 -21.5t122 -80.5v182q0 70 -12.5 111t-46 61.5t-92 26.5t-150.5 6q-66 0 -112 -5t-75.5 -21.5t-43 -45t-13.5 -73.5h-155v24q0 143 94 196.5t295 53.5q147 0 241 -12.5t142 -46.5q59 -47 71.5 -112 t12.5 -159v-737h-142l-6 111q-39 -70 -120 -97.5t-212 -27.5q-115 0 -194.5 13t-128.5 50t-70.5 102.5t-21.5 167.5zM274 338q0 -63 12.5 -103t43 -64t84 -32t133.5 -8q154 0 228.5 36t74.5 101v111q0 78 -80 111.5t-240 33.5q-74 0 -123 -8t-78.5 -28.5t-42 -56.5 t-12.5 -93zM344 1526h152l209 -348h-92z" />
<glyph unicode="&#xe1;" d="M111 319q0 100 17 167t67 108q43 35 121.5 47t201.5 12q129 0 210 -21.5t122 -80.5v182q0 70 -12.5 111t-46 61.5t-92 26.5t-150.5 6q-66 0 -112 -5t-75.5 -21.5t-43 -45t-13.5 -73.5h-155v24q0 143 94 196.5t295 53.5q147 0 241 -12.5t142 -46.5q59 -47 71.5 -112 t12.5 -159v-737h-142l-6 111q-39 -70 -120 -97.5t-212 -27.5q-115 0 -194.5 13t-128.5 50t-70.5 102.5t-21.5 167.5zM274 338q0 -63 12.5 -103t43 -64t84 -32t133.5 -8q154 0 228.5 36t74.5 101v111q0 78 -80 111.5t-240 33.5q-74 0 -123 -8t-78.5 -28.5t-42 -56.5 t-12.5 -93zM455 1178l209 348h152l-269 -348h-92z" />
<glyph unicode="&#xe2;" d="M111 319q0 100 17 167t67 108q43 35 121.5 47t201.5 12q129 0 210 -21.5t122 -80.5v182q0 70 -12.5 111t-46 61.5t-92 26.5t-150.5 6q-66 0 -112 -5t-75.5 -21.5t-43 -45t-13.5 -73.5h-155v24q0 143 94 196.5t295 53.5q147 0 241 -12.5t142 -46.5q59 -47 71.5 -112 t12.5 -159v-737h-142l-6 111q-39 -70 -120 -97.5t-212 -27.5q-115 0 -194.5 13t-128.5 50t-70.5 102.5t-21.5 167.5zM274 338q0 -63 12.5 -103t43 -64t84 -32t133.5 -8q154 0 228.5 36t74.5 101v111q0 78 -80 111.5t-240 33.5q-74 0 -123 -8t-78.5 -28.5t-42 -56.5 t-12.5 -93zM304 1178l200 348h152l200 -348h-92l-184 262l-184 -262h-92z" />
<glyph unicode="&#xe3;" d="M111 319q0 100 17 167t67 108q43 35 121.5 47t201.5 12q129 0 210 -21.5t122 -80.5v182q0 70 -12.5 111t-46 61.5t-92 26.5t-150.5 6q-66 0 -112 -5t-75.5 -21.5t-43 -45t-13.5 -73.5h-155v24q0 143 94 196.5t295 53.5q147 0 241 -12.5t142 -46.5q59 -47 71.5 -112 t12.5 -159v-737h-142l-6 111q-39 -70 -120 -97.5t-212 -27.5q-115 0 -194.5 13t-128.5 50t-70.5 102.5t-21.5 167.5zM274 338q0 -63 12.5 -103t43 -64t84 -32t133.5 -8q154 0 228.5 36t74.5 101v111q0 78 -80 111.5t-240 33.5q-74 0 -123 -8t-78.5 -28.5t-42 -56.5 t-12.5 -93zM291 1235q23 90 73 136t122 46q31 0 53 -8l96 -31q16 -6 30.5 -8t25.5 -2q66 0 96 72h82q-51 -180 -191 -180q-29 0 -65 10l-96 28q-31 10 -54 11q-59 0 -92 -74h-80z" />
<glyph unicode="&#xe4;" d="M111 319q0 100 17 167t67 108q43 35 121.5 47t201.5 12q129 0 210 -21.5t122 -80.5v182q0 70 -12.5 111t-46 61.5t-92 26.5t-150.5 6q-66 0 -112 -5t-75.5 -21.5t-43 -45t-13.5 -73.5h-155v24q0 143 94 196.5t295 53.5q147 0 241 -12.5t142 -46.5q59 -47 71.5 -112 t12.5 -159v-737h-142l-6 111q-39 -70 -120 -97.5t-212 -27.5q-115 0 -194.5 13t-128.5 50t-70.5 102.5t-21.5 167.5zM274 338q0 -63 12.5 -103t43 -64t84 -32t133.5 -8q154 0 228.5 36t74.5 101v111q0 78 -80 111.5t-240 33.5q-74 0 -123 -8t-78.5 -28.5t-42 -56.5 t-12.5 -93zM349 1253v164h141v-164h-141zM670 1253v164h141v-164h-141z" />
<glyph unicode="&#xe5;" d="M111 319q0 100 17 167t67 108q43 35 121.5 47t201.5 12q129 0 210 -21.5t122 -80.5v182q0 70 -12.5 111t-46 61.5t-92 26.5t-150.5 6q-66 0 -112 -5t-75.5 -21.5t-43 -45t-13.5 -73.5h-155v20q0 76 23.5 125t73.5 77.5t127 40t181 11.5q160 0 257 -16.5t142 -75.5 q37 -47 44.5 -100.5t7.5 -116.5v-758h-142l-6 111q-39 -70 -120 -97.5t-212 -27.5q-115 0 -194.5 13t-128.5 50t-70.5 102.5t-21.5 167.5zM274 338q0 -63 12.5 -103t43 -64t84 -32t133.5 -8q154 0 228.5 36t74.5 101v111q0 78 -80 111.5t-240 33.5q-74 0 -123 -8 t-78.5 -28.5t-42 -56.5t-12.5 -93zM352 1366q0 51 18.5 94t51.5 76t77 51.5t95 18.5t95 -18.5t77 -51.5t51.5 -76t18.5 -94t-18.5 -95t-51.5 -76t-77 -50.5t-95 -18.5t-95 18.5t-77 50.5t-51.5 76t-18.5 95zM444 1366q0 -63 43 -106t107 -43q61 0 105 43t44 106t-43 106.5 t-106 43.5t-106.5 -43.5t-43.5 -106.5z" />
<glyph unicode="&#xe6;" horiz-adv-x="1878" d="M111 319q0 100 17 167t67 108q43 35 121.5 47t201.5 12q129 0 210 -21.5t122 -80.5v182q0 70 -12.5 111t-46 61.5t-92 26.5t-150.5 6q-66 0 -112 -5t-74.5 -20.5t-43 -44t-14.5 -75.5h-155v20q0 76 23.5 125t72.5 77.5t126 40t183 11.5q158 0 250 -20.5t133 -94.5 q51 70 129 92.5t195 22.5h75q119 0 200 -21.5t130 -70.5t70.5 -129t21.5 -195v-159h-758q-2 -25 -2 -46.5v-42.5q0 -84 12.5 -138t42 -84.5t81 -42t129.5 -11.5h73q63 0 109.5 7t77 27.5t48 56.5t23.5 91h162q-12 -176 -113.5 -249.5t-306.5 -73.5h-73q-70 0 -125.5 6 t-98.5 23.5t-74.5 49t-56.5 80.5q-66 -92 -164 -125.5t-251 -33.5q-106 0 -180 15t-119 54t-64.5 103.5t-19.5 160.5zM274 338q0 -63 12.5 -103t43 -64t84 -32t133.5 -8q154 0 228.5 36t74.5 101v111q0 78 -80 111.5t-240 33.5q-74 0 -123 -8t-78.5 -28.5t-42 -56.5 t-12.5 -93zM1001 629h598v41q0 78 -13 127t-44 77.5t-81 39t-124 10.5h-73q-74 0 -124 -10.5t-81 -39t-44.5 -77.5t-13.5 -127v-41z" />
<glyph unicode="&#xe7;" d="M119 401v250q0 115 21.5 195t70.5 129t130 70.5t200 21.5h73q217 0 318.5 -84t105.5 -283h-161q-2 70 -17.5 113t-46.5 67.5t-80 34t-119 9.5h-73q-86 0 -138.5 -13.5t-79 -48.5t-34.5 -94t-8 -152v-180q0 -92 8 -151.5t34.5 -95t79 -49t138.5 -13.5h73q72 0 122 10 t81 38t45.5 75t14.5 121v18h161v-20q0 -209 -99 -296t-323 -87h-73q-119 0 -200 21.5t-131 70.5t-71.5 129t-21.5 194zM392 -371h213q27 0 43 3t23 12.5t9 29t2 52.5t-2 51t-10 26.5t-24.5 10.5t-42.5 2h-78v184h65v-115h64q51 0 81.5 -6t46 -24.5t19.5 -50t4 -83.5 q0 -57 -4 -92t-19.5 -54t-45 -26.5t-80.5 -7.5h-264v88z" />
<glyph unicode="&#xe8;" d="M119 401v250q0 115 21.5 195t70.5 129t130 70.5t200 21.5h73q119 0 200 -21.5t131 -70.5t71.5 -129t21.5 -195v-159h-757q-2 -25 -2 -47.5v-43.5q0 -84 12 -137t41.5 -83.5t80 -42t128.5 -11.5h73q63 0 109.5 7t78.5 27.5t49 56.5t23 91h162q-12 -176 -113.5 -249.5 t-306.5 -73.5h-73q-119 0 -200 21.5t-131 70.5t-71.5 129t-21.5 194zM281 629h596v41q0 78 -13.5 127t-44.5 77.5t-81 39t-124 10.5h-73q-74 0 -124 -10.5t-81 -39t-43 -77.5t-12 -127v-41zM350 1526h152l209 -348h-92z" />
<glyph unicode="&#xe9;" d="M119 401v250q0 115 21.5 195t70.5 129t130 70.5t200 21.5h73q119 0 200 -21.5t131 -70.5t71.5 -129t21.5 -195v-159h-757q-2 -25 -2 -47.5v-43.5q0 -84 12 -137t41.5 -83.5t80 -42t128.5 -11.5h73q63 0 109.5 7t78.5 27.5t49 56.5t23 91h162q-12 -176 -113.5 -249.5 t-306.5 -73.5h-73q-119 0 -200 21.5t-131 70.5t-71.5 129t-21.5 194zM281 629h596v41q0 78 -13.5 127t-44.5 77.5t-81 39t-124 10.5h-73q-74 0 -124 -10.5t-81 -39t-43 -77.5t-12 -127v-41zM461 1178l209 348h152l-269 -348h-92z" />
<glyph unicode="&#xea;" d="M119 401v250q0 115 21.5 195t70.5 129t130 70.5t200 21.5h73q119 0 200 -21.5t131 -70.5t71.5 -129t21.5 -195v-159h-757q-2 -25 -2 -47.5v-43.5q0 -84 12 -137t41.5 -83.5t80 -42t128.5 -11.5h73q63 0 109.5 7t78.5 27.5t49 56.5t23 91h162q-12 -176 -113.5 -249.5 t-306.5 -73.5h-73q-119 0 -200 21.5t-131 70.5t-71.5 129t-21.5 194zM281 629h596v41q0 78 -13.5 127t-44.5 77.5t-81 39t-124 10.5h-73q-74 0 -124 -10.5t-81 -39t-43 -77.5t-12 -127v-41zM310 1178l200 348h152l200 -348h-92l-184 262l-184 -262h-92z" />
<glyph unicode="&#xeb;" d="M119 401v250q0 115 21.5 195t70.5 129t130 70.5t200 21.5h73q119 0 200 -21.5t131 -70.5t71.5 -129t21.5 -195v-159h-757q-2 -25 -2 -47.5v-43.5q0 -84 12 -137t41.5 -83.5t80 -42t128.5 -11.5h73q63 0 109.5 7t78.5 27.5t49 56.5t23 91h162q-12 -176 -113.5 -249.5 t-306.5 -73.5h-73q-119 0 -200 21.5t-131 70.5t-71.5 129t-21.5 194zM281 629h596v41q0 78 -13.5 127t-44.5 77.5t-81 39t-124 10.5h-73q-74 0 -124 -10.5t-81 -39t-43 -77.5t-12 -127v-41zM355 1253v164h141v-164h-141zM676 1253v164h141v-164h-141z" />
<glyph unicode="&#xec;" horiz-adv-x="479" d="M6 1526h152l209 -348h-92zM162 0v1053h155v-1053h-155z" />
<glyph unicode="&#xed;" horiz-adv-x="479" d="M117 1178l209 348h152l-269 -348h-92zM162 0v1053h155v-1053h-155z" />
<glyph unicode="&#xee;" horiz-adv-x="479" d="M-34 1178l200 348h152l200 -348h-92l-184 262l-184 -262h-92zM162 0v1053h155v-1053h-155z" />
<glyph unicode="&#xef;" horiz-adv-x="479" d="M11 1253v164h141v-164h-141zM162 0v1053h155v-1053h-155zM332 1253v164h141v-164h-141z" />
<glyph unicode="&#xf0;" d="M119 401v250q0 115 21.5 195t70.5 129t130 70.5t200 21.5h59q82 0 144.5 -34t115.5 -103q-25 86 -66.5 172t-105.5 178l-332 -106l-43 114l289 94l-78 107h166l51 -66l205 68l45 -113l-164 -55q94 -137 152.5 -300t58.5 -372v-250q0 -115 -21.5 -194.5t-70.5 -128.5 t-130 -70.5t-200 -21.5h-73q-119 0 -200 21.5t-131 70.5t-71.5 129t-21.5 194zM281 436q0 -92 8 -151.5t34.5 -95t79 -49t138.5 -13.5h73q86 0 138.5 13.5t80 48t36 95t8.5 152.5v180q0 70 -20.5 127.5t-56.5 97.5t-84 61.5t-102 21.5h-73q-86 0 -138.5 -13.5t-79 -48.5 t-34.5 -94t-8 -152v-180z" />
<glyph unicode="&#xf1;" horiz-adv-x="1179" d="M162 0v1053h149v-144q39 82 123 120t221 38q104 0 176 -20.5t116 -65.5t62.5 -116.5t18.5 -174.5v-690h-156v657q0 76 -9 128.5t-34.5 83t-71.5 44t-122 13.5q-166 0 -242 -75t-76 -239v-612h-155zM332 1235q23 90 73 136t122 46q31 0 53 -8l96 -31q16 -6 30.5 -8 t25.5 -2q66 0 96 72h82q-51 -180 -191 -180q-29 0 -65 10l-96 28q-31 10 -54 11q-59 0 -92 -74h-80z" />
<glyph unicode="&#xf2;" d="M119 401v250q0 115 21.5 195t70.5 129t130 70.5t200 21.5h73q119 0 200 -21.5t131 -70.5t71.5 -129t21.5 -195v-250q0 -115 -21.5 -194.5t-70.5 -128.5t-130 -70.5t-200 -21.5h-73q-119 0 -200 21.5t-131 70.5t-71.5 129t-21.5 194zM281 436q0 -92 8 -151.5t34.5 -95 t79 -49t138.5 -13.5h73q86 0 138.5 13.5t80 49t36 95t8.5 151.5v180q0 92 -8.5 151.5t-36 94.5t-80 48.5t-138.5 13.5h-73q-86 0 -138.5 -13.5t-79 -48.5t-34.5 -94t-8 -152v-180zM344 1526h152l209 -348h-92z" />
<glyph unicode="&#xf3;" d="M119 401v250q0 115 21.5 195t70.5 129t130 70.5t200 21.5h73q119 0 200 -21.5t131 -70.5t71.5 -129t21.5 -195v-250q0 -115 -21.5 -194.5t-70.5 -128.5t-130 -70.5t-200 -21.5h-73q-119 0 -200 21.5t-131 70.5t-71.5 129t-21.5 194zM281 436q0 -92 8 -151.5t34.5 -95 t79 -49t138.5 -13.5h73q86 0 138.5 13.5t80 49t36 95t8.5 151.5v180q0 92 -8.5 151.5t-36 94.5t-80 48.5t-138.5 13.5h-73q-86 0 -138.5 -13.5t-79 -48.5t-34.5 -94t-8 -152v-180zM455 1178l209 348h152l-269 -348h-92z" />
<glyph unicode="&#xf4;" d="M119 401v250q0 115 21.5 195t70.5 129t130 70.5t200 21.5h73q119 0 200 -21.5t131 -70.5t71.5 -129t21.5 -195v-250q0 -115 -21.5 -194.5t-70.5 -128.5t-130 -70.5t-200 -21.5h-73q-119 0 -200 21.5t-131 70.5t-71.5 129t-21.5 194zM281 436q0 -92 8 -151.5t34.5 -95 t79 -49t138.5 -13.5h73q86 0 138.5 13.5t80 49t36 95t8.5 151.5v180q0 92 -8.5 151.5t-36 94.5t-80 48.5t-138.5 13.5h-73q-86 0 -138.5 -13.5t-79 -48.5t-34.5 -94t-8 -152v-180zM304 1178l200 348h152l200 -348h-92l-184 262l-184 -262h-92z" />
<glyph unicode="&#xf5;" d="M119 401v250q0 115 21.5 195t70.5 129t130 70.5t200 21.5h73q119 0 200 -21.5t131 -70.5t71.5 -129t21.5 -195v-250q0 -115 -21.5 -194.5t-70.5 -128.5t-130 -70.5t-200 -21.5h-73q-119 0 -200 21.5t-131 70.5t-71.5 129t-21.5 194zM281 436q0 -92 8 -151.5t34.5 -95 t79 -49t138.5 -13.5h73q86 0 138.5 13.5t80 49t36 95t8.5 151.5v180q0 92 -8.5 151.5t-36 94.5t-80 48.5t-138.5 13.5h-73q-86 0 -138.5 -13.5t-79 -48.5t-34.5 -94t-8 -152v-180zM291 1235q23 90 73 136t122 46q31 0 53 -8l96 -31q16 -6 30.5 -8t25.5 -2q66 0 96 72h82 q-51 -180 -191 -180q-29 0 -65 10l-96 28q-31 10 -54 11q-59 0 -92 -74h-80z" />
<glyph unicode="&#xf6;" d="M119 401v250q0 115 21.5 195t70.5 129t130 70.5t200 21.5h73q119 0 200 -21.5t131 -70.5t71.5 -129t21.5 -195v-250q0 -115 -21.5 -194.5t-70.5 -128.5t-130 -70.5t-200 -21.5h-73q-119 0 -200 21.5t-131 70.5t-71.5 129t-21.5 194zM281 436q0 -92 8 -151.5t34.5 -95 t79 -49t138.5 -13.5h73q86 0 138.5 13.5t80 49t36 95t8.5 151.5v180q0 92 -8.5 151.5t-36 94.5t-80 48.5t-138.5 13.5h-73q-86 0 -138.5 -13.5t-79 -48.5t-34.5 -94t-8 -152v-180zM349 1253v164h141v-164h-141zM670 1253v164h141v-164h-141z" />
<glyph unicode="&#xf7;" horiz-adv-x="1705" d="M254 561v98h1198v-98h-1198zM748 258q0 45 31.5 76t74.5 31q45 0 76 -31t31 -76q0 -43 -30 -74.5t-77 -31.5q-45 0 -75.5 30.5t-30.5 75.5zM748 963q0 45 31.5 76.5t74.5 31.5q45 0 76 -31.5t31 -76.5q0 -43 -30 -75t-77 -32t-76.5 31t-29.5 76z" />
<glyph unicode="&#xf8;" d="M76 -31l106 146q-39 53 -51 122.5t-12 163.5v250q0 115 21.5 195t70.5 129t130 70.5t200 21.5h73q174 0 244 -35l105 142l116 -89l-104 -143q39 -59 51 -130t12 -161v-250q0 -115 -21.5 -194.5t-70.5 -128.5t-130 -70.5t-200 -21.5h-73q-70 0 -129.5 6t-112.5 28 l-106 -141zM281 436q0 -53 1 -101t5 -93l491 669q-37 8 -78 10.5t-86 2.5h-73q-86 0 -138.5 -13.5t-79 -48.5t-34.5 -94t-8 -152v-180zM373 139q86 -12 168 -12h73q86 0 138.5 13.5t80 49t36 95t8.5 151.5v180q0 59 -2.5 109.5t-6.5 91.5z" />
<glyph unicode="&#xf9;" horiz-adv-x="1179" d="M152 362v691h155v-658q0 -78 9.5 -129t35 -81.5t72.5 -44t123 -13.5q166 0 240.5 74.5t74.5 238.5v613h158v-1053h-150v143q-39 -82 -123.5 -119.5t-222.5 -37.5q-104 0 -176 20.5t-116 65.5t-62 116.5t-18 173.5zM354 1526h152l209 -348h-92z" />
<glyph unicode="&#xfa;" horiz-adv-x="1179" d="M152 362v691h155v-658q0 -78 9.5 -129t35 -81.5t72.5 -44t123 -13.5q166 0 240.5 74.5t74.5 238.5v613h158v-1053h-150v143q-39 -82 -123.5 -119.5t-222.5 -37.5q-104 0 -176 20.5t-116 65.5t-62 116.5t-18 173.5zM465 1178l209 348h152l-269 -348h-92z" />
<glyph unicode="&#xfb;" horiz-adv-x="1179" d="M152 362v691h155v-658q0 -78 9.5 -129t35 -81.5t72.5 -44t123 -13.5q166 0 240.5 74.5t74.5 238.5v613h158v-1053h-150v143q-39 -82 -123.5 -119.5t-222.5 -37.5q-104 0 -176 20.5t-116 65.5t-62 116.5t-18 173.5zM314 1178l200 348h152l200 -348h-92l-184 262l-184 -262 h-92z" />
<glyph unicode="&#xfc;" horiz-adv-x="1179" d="M152 362v691h155v-658q0 -78 9.5 -129t35 -81.5t72.5 -44t123 -13.5q166 0 240.5 74.5t74.5 238.5v613h158v-1053h-150v143q-39 -82 -123.5 -119.5t-222.5 -37.5q-104 0 -176 20.5t-116 65.5t-62 116.5t-18 173.5zM359 1253v164h141v-164h-141zM680 1253v164h141v-164 h-141z" />
<glyph unicode="&#xfd;" horiz-adv-x="999" d="M47 1053h156l313 -906l311 906h154l-397 -1145q-29 -82 -57.5 -142.5t-64.5 -99.5t-82 -57.5t-110 -18.5q-37 0 -82 7v137q12 -2 24.5 -2h23.5q39 0 66.5 8t49 27.5t38 50t32.5 73.5l39 109h-47zM377 1178l209 348h152l-269 -348h-92z" />
<glyph unicode="&#xfe;" horiz-adv-x="1175" d="M164 -403v1892h149v-600q37 92 119 135t215 43q115 0 193 -22.5t126 -72.5t69.5 -129t21.5 -192v-250q0 -113 -21.5 -191.5t-69.5 -128.5t-126 -72.5t-193 -22.5q-125 0 -203.5 35.5t-124.5 128.5v-553h-155zM319 440q0 -166 76 -239.5t246 -73.5q86 0 136 15.5t76 50 t34 94t8 149.5v180q0 94 -8 153.5t-37 94.5t-82 48.5t-143 13.5q-158 0 -232 -77t-74 -237v-172z" />
<glyph unicode="&#xff;" horiz-adv-x="999" d="M47 1053h156l313 -906l311 906h154l-397 -1145q-29 -82 -57.5 -142.5t-64.5 -99.5t-82 -57.5t-110 -18.5q-37 0 -82 7v137q12 -2 24.5 -2h23.5q39 0 66.5 8t49 27.5t38 50t32.5 73.5l39 109h-47zM271 1253v164h141v-164h-141zM592 1253v164h141v-164h-141z" />
<glyph unicode="&#x152;" horiz-adv-x="2351" d="M133 492v505q0 143 27.5 240.5t91 158t166 86t252.5 25.5h188q139 0 225 -31.5t140 -123.5v137h1044v-158h-881v-487h857v-152h-857v-536h881v-156h-1044v137q-59 -94 -144.5 -124.5t-220.5 -30.5h-188q-150 0 -252.5 25.5t-166 86t-91 157.5t-27.5 241zM303 498 q0 -111 10.5 -181.5t61.5 -113.5q57 -47 131 -56.5t174 -9.5h166q100 0 174 9.5t131 56.5q51 43 61.5 113.5t10.5 181.5v493q0 111 -10.5 181.5t-61.5 113.5q-57 47 -131 56.5t-174 9.5h-166q-100 0 -174 -9.5t-131 -56.5q-51 -43 -61.5 -113.5t-10.5 -181.5v-493z" />
<glyph unicode="&#x153;" horiz-adv-x="1906" d="M119 401v250q0 115 21.5 195t70.5 129t130 70.5t200 21.5h73q119 0 200 -23.5t140 -103.5q51 78 131 102.5t205 24.5h74q119 0 200 -21.5t131 -70.5t71.5 -129t21.5 -195v-159h-760q-2 -25 -2 -46.5v-42.5q0 -84 12.5 -138t42 -84.5t80.5 -42t129 -11.5h74q63 0 109.5 7 t78 27.5t49 56.5t23.5 91h160q-12 -176 -113.5 -249.5t-306.5 -73.5h-74q-125 0 -205.5 24.5t-132.5 104.5q-55 -82 -135 -105.5t-201 -23.5h-73q-119 0 -200 21.5t-131 70.5t-71.5 129t-21.5 194zM281 436q0 -92 8 -151.5t34.5 -95t79 -49t138.5 -13.5h73q86 0 138.5 13.5 t80 49t36 95t8.5 151.5v180q0 92 -8.5 151.5t-36 94.5t-80 48.5t-138.5 13.5h-73q-86 0 -138.5 -13.5t-79 -48.5t-34.5 -94t-8 -152v-180zM1028 629h598v41q0 78 -13.5 127t-44 77.5t-80.5 39t-124 10.5h-74q-74 0 -124 -10.5t-80.5 -39t-44 -77.5t-13.5 -127v-41z" />
<glyph unicode="&#x178;" horiz-adv-x="1218" d="M-88 1489h194l502 -694l502 694h195l-615 -827v-662h-162v659zM379 1693v164h141v-164h-141zM700 1693v164h141v-164h-141z" />
<glyph unicode="&#x2c6;" horiz-adv-x="1024" d="M236 1178l200 348h152l200 -348h-92l-184 262l-184 -262h-92z" />
<glyph unicode="&#x2dc;" horiz-adv-x="1024" d="M223 1235q23 90 73 136t122 46q31 0 53 -8l96 -31q16 -6 30.5 -8t25.5 -2q66 0 96 72h82q-51 -180 -191 -180q-29 0 -65 10l-96 28q-31 10 -54 11q-59 0 -92 -74h-80z" />
<glyph unicode="&#x2000;" horiz-adv-x="1014" />
<glyph unicode="&#x2001;" horiz-adv-x="2028" />
<glyph unicode="&#x2002;" horiz-adv-x="1014" />
<glyph unicode="&#x2003;" horiz-adv-x="2028" />
<glyph unicode="&#x2004;" horiz-adv-x="676" />
<glyph unicode="&#x2005;" horiz-adv-x="507" />
<glyph unicode="&#x2006;" horiz-adv-x="338" />
<glyph unicode="&#x2007;" horiz-adv-x="338" />
<glyph unicode="&#x2008;" horiz-adv-x="253" />
<glyph unicode="&#x2009;" horiz-adv-x="405" />
<glyph unicode="&#x200a;" horiz-adv-x="112" />
<glyph unicode="&#x2010;" horiz-adv-x="825" d="M133 485v140h559v-140h-559z" />
<glyph unicode="&#x2011;" horiz-adv-x="825" d="M133 485v140h559v-140h-559z" />
<glyph unicode="&#x2012;" horiz-adv-x="825" d="M133 485v140h559v-140h-559z" />
<glyph unicode="&#x2013;" horiz-adv-x="1024" d="M0 502v104h1024v-104h-1024z" />
<glyph unicode="&#x2014;" horiz-adv-x="2048" d="M0 502v104h2048v-104h-2048z" />
<glyph unicode="&#x2018;" horiz-adv-x="663" d="M250 1081v250q0 76 42 117t122 41v-88q-37 -4 -52.5 -19.5t-15.5 -50.5v-43h68v-207h-164z" />
<glyph unicode="&#x2019;" horiz-adv-x="663" d="M250 1081v88q37 4 52 19.5t15 50.5v43h-67v207h164v-250q0 -76 -42 -117t-122 -41z" />
<glyph unicode="&#x201a;" horiz-adv-x="663" d="M250 0v207h164v-250q0 -76 -42 -117t-122 -41v88q37 4 52 19.5t15 50.5v43h-67z" />
<glyph unicode="&#x201c;" horiz-adv-x="1005" d="M248 1081v250q0 76 42 117t122 41v-88q-37 -4 -52.5 -19.5t-15.5 -50.5v-43h68v-207h-164zM592 1081v250q0 76 43 117t123 41v-88q-37 -4 -53.5 -19.5t-16.5 -50.5v-43h70v-207h-166z" />
<glyph unicode="&#x201d;" horiz-adv-x="1005" d="M248 1081v88q37 4 52 19.5t15 50.5v43h-67v207h164v-250q0 -76 -42 -117t-122 -41zM592 1081v88q37 4 52 19.5t15 50.5v43h-67v207h164v-250q0 -76 -42 -117t-122 -41z" />
<glyph unicode="&#x201e;" horiz-adv-x="1005" d="M248 0v207h164v-250q0 -76 -42 -117t-122 -41v88q37 4 52 19.5t15 50.5v43h-67zM592 0v207h164v-250q0 -76 -42 -117t-122 -41v88q37 4 52 19.5t15 50.5v43h-67z" />
<glyph unicode="&#x2022;" horiz-adv-x="1208" d="M307 762q0 61 23.5 114.5t63.5 93.5t94.5 63.5t115.5 23.5t114.5 -23.5t93.5 -63.5t63.5 -93.5t23.5 -114.5t-23.5 -114.5t-63.5 -94.5t-94 -64.5t-116 -23.5q-61 0 -115.5 23.5t-94.5 63.5t-62.5 94.5t-22.5 115.5z" />
<glyph unicode="&#x2026;" horiz-adv-x="2048" d="M129 0v217h174v-217h-174zM811 0v217h174v-217h-174zM1495 0v217h174v-217h-174z" />
<glyph unicode="&#x202f;" horiz-adv-x="405" />
<glyph unicode="&#x2039;" horiz-adv-x="630" d="M98 526l246 314h172l-248 -314l248 -313h-172z" />
<glyph unicode="&#x203a;" horiz-adv-x="630" d="M115 213l247 313l-247 314h172l245 -314l-245 -313h-172z" />
<glyph unicode="&#x205f;" horiz-adv-x="507" />
<glyph unicode="&#x2122;" horiz-adv-x="1705" d="M264 1397v57h430v-57h-172v-473h-82v473h-176zM821 924v530h117l166 -422l156 422h116v-530h-71v467l-177 -467h-49l-186 467v-467h-72z" />
<glyph unicode="&#x25fc;" horiz-adv-x="1054" d="M0 0v1055h1055v-1055h-1055z" />
</font>
</defs>
</svg>
