<?xml version="1.0" standalone="no"?>
<!DOCTYPE svg PUBLIC "-//W3C//DTD SVG 1.1//EN" "http://www.w3.org/Graphics/SVG/1.1/DTD/svg11.dtd" >
<svg xmlns="http://www.w3.org/2000/svg">
<metadata></metadata>
<defs>
<font id="square_721bold" horiz-adv-x="1024" >
<font-face units-per-em="2048" ascent="1638" descent="-410" />
<missing-glyph horiz-adv-x="999" />
<glyph unicode="&#xfb01;" horiz-adv-x="1564" d="M35 766v287h184v34q0 113 25.5 189t82 122t144.5 66.5t215 20.5h236v-262q-27 2 -49.5 3t-45.5 1q-119 0 -174 -33t-55 -111q0 -20 2 -30h322v-287h-322v-766h-381v766h-184zM1049 0v1053h378v-1053h-378zM1049 1180v309h378v-309h-378z" />
<glyph unicode="&#xfb02;" horiz-adv-x="1564" d="M35 766v287h184v34q0 113 25.5 189t82 122t144.5 66.5t215 20.5h236v-262q-27 2 -49.5 3t-45.5 1q-119 0 -174 -33t-55 -111q0 -20 2 -30h322v-287h-322v-766h-381v766h-184zM1049 0v1489h378v-1489h-378z" />
<glyph horiz-adv-x="0" />
<glyph unicode="&#xd;" horiz-adv-x="999" />
<glyph unicode=" "  horiz-adv-x="999" />
<glyph unicode="&#x09;" horiz-adv-x="999" />
<glyph unicode="&#xa0;" horiz-adv-x="999" />
<glyph unicode="!" horiz-adv-x="999" d="M289 0v422h422v-422h-422zM289 1116v373h422v-373l-21 -512h-387z" />
<glyph unicode="&#x22;" horiz-adv-x="712" d="M76 877v561h219v-561h-219zM416 877v561h223v-561h-223z" />
<glyph unicode="#" horiz-adv-x="1574" d="M23 381l86 231h270l82 230h-283l86 229h279l141 395h250l-139 -395h235l141 395h250l-139 -395h270l-86 -229h-268l-80 -230h277l-84 -231h-275l-141 -393h-250l139 393h-235l-141 -393h-250l139 393h-274zM625 610h245l82 232h-245z" />
<glyph unicode="$" horiz-adv-x="2000" d="M117 479v21h399q-2 -12 -2 -23.5v-21.5q0 -41 9 -67t29.5 -40t54.5 -18t81 -4h199v290l-330 31q-117 10 -199 32.5t-132 67t-72.5 118t-22.5 186.5q0 129 31 213t95.5 133t163.5 68.5t238 19.5h228v168h215v-168h252q469 0 469 -412h-393v8q0 59 -42 78t-135 19h-151 v-269l325 -28q225 -20 329 -123t104 -301q0 -104 -19.5 -180t-68.5 -134q-43 -49 -93.5 -77.5t-112 -43t-134 -18.5t-158.5 -4h-172v-209h-215v209h-176q-193 0 -316 23.5t-190 101.5q-47 53 -67.5 140t-20.5 214zM508 1061q0 -98 131 -111l248 -22v248h-189 q-96 0 -143 -21.5t-47 -93.5zM1102 326h217q150 0 149 129q0 72 -48 94t-148 33l-170 16v-272z" />
<glyph unicode="%" horiz-adv-x="2635" d="M133 909v271q0 168 65.5 247.5t221.5 79.5h409q150 0 216.5 -77.5t66.5 -249.5v-271q0 -164 -67.5 -241.5t-219.5 -77.5h-395q-156 0 -226.5 70.5t-70.5 248.5zM389 981q0 -51 9.5 -83t27.5 -50.5t48 -25.5t71 -7h151q86 0 123 35t37 131v129q0 104 -37 139t-123 35h-151 q-92 0 -124 -40t-32 -134v-129zM975 -18l498 1525h190l-496 -1525h-192zM1524 301v268q0 168 65.5 248t220.5 80h410q150 0 216.5 -78t66.5 -250v-268q0 -164 -68 -241.5t-219 -77.5h-395q-156 0 -226.5 70.5t-70.5 248.5zM1780 371q0 -51 9 -83t27.5 -50.5t48 -24.5 t70.5 -6h152q86 0 123 33.5t37 130.5v129q0 104 -37 139t-123 35h-152q-92 0 -123.5 -40t-31.5 -134v-129z" />
<glyph unicode="&#x26;" horiz-adv-x="2134" d="M143 371v192q0 276 308 291q-76 45 -106 92t-30 123v166q0 96 29 151.5t88.5 83t150.5 33.5t216 6h428q147 0 253.5 -10t175 -44t102.5 -96.5t34 -166.5v-184h-381q0 10 1 19t1 20q0 88 -41 118.5t-145 30.5h-383q-119 0 -119 -88q0 -57 57 -90l760 -397q16 61 17 114 q0 31 -7 72h375v-244q0 -16 -5 -51t-19 -82l272 -151l-129 -285l-256 137q-41 -51 -91 -79.5t-110.5 -44t-132.5 -19.5t-158 -4h-516q-168 0 -288.5 19.5t-198.5 63.5t-115 118.5t-37 185.5zM551 453q0 -45 12 -74t39 -45.5t71 -22.5t109 -6h650l-687 365q-35 18 -67 18 q-59 0 -93 -36t-34 -101v-98z" />
<glyph unicode="'" horiz-adv-x="370" d="M76 877v561h219v-561h-219z" />
<glyph unicode="(" horiz-adv-x="978" d="M186 434v668q0 209 108.5 307t340.5 98h229v-368q-55 6 -96 6q-92 0 -126 -36t-34 -124v-502q0 -82 35 -111.5t127 -29.5q35 0 94 6v-368h-209q-244 0 -356.5 109.5t-112.5 344.5z" />
<glyph unicode=")" horiz-adv-x="978" d="M131 -20v368q57 -6 92 -6q92 0 127 29.5t35 111.5v502q0 88 -34 124t-124 36q-41 0 -96 -6v368h227q231 0 340 -98t109 -307v-668q0 -236 -111.5 -345t-355.5 -109h-209z" />
<glyph unicode="*" horiz-adv-x="1492" d="M274 928v229l299 -18v-193zM412 692l166 250l163 -96l-131 -266zM412 1395l198 112l131 -266l-163 -96zM750 846l165 96l164 -250l-196 -112zM750 1241l133 266l196 -112l-164 -250zM920 946v193l297 18v-229z" />
<glyph unicode="+" horiz-adv-x="1705" d="M254 496v231h481v494h238v-494h479v-231h-479v-496h-238v496h-481z" />
<glyph unicode="," horiz-adv-x="999" d="M219 -123h33q78 0 110.5 23.5t32.5 83.5v16h-110v420h432v-469q0 -172 -85 -246t-280 -74q-63 0 -133 7v239z" />
<glyph unicode="-" horiz-adv-x="1009" d="M160 344v381h674v-381h-674z" />
<glyph unicode="." horiz-adv-x="999" d="M289 0v422h422v-422h-422z" />
<glyph unicode="/" horiz-adv-x="745" d="M-168 -190l791 1697h227l-791 -1697h-227z" />
<glyph unicode="0" horiz-adv-x="2000" d="M150 528v406q0 174 28.5 287.5t106.5 181.5t194.5 86t290.5 18h459q174 0 290.5 -17t194.5 -87q72 -63 103.5 -174t31.5 -277v-415q0 -166 -31.5 -276.5t-103.5 -174.5q-78 -70 -195.5 -87t-289.5 -17h-457q-84 0 -154.5 3t-131 13t-109.5 31.5t-90 56.5 q-76 66 -106.5 174.5t-30.5 267.5zM596 629q0 -92 14.5 -149.5t49 -91.5t92 -46t141.5 -12h215q86 0 143.5 12t91 46t48 93.5t14.5 151.5v225q0 94 -14.5 152.5t-48 91.5t-91 45t-143.5 12h-215q-86 0 -143.5 -12t-91 -46t-48 -94.5t-14.5 -158.5v-219z" />
<glyph unicode="1" horiz-adv-x="2000" d="M287 1085l651 404h504v-1489h-436v1120l-504 -346z" />
<glyph unicode="2" horiz-adv-x="2000" d="M145 1049q0 135 32 224t102.5 141t184.5 72.5t275 20.5h604q266 0 389 -85t123 -271v-246q0 -141 -91 -231t-265 -105l-797 -67q-72 -6 -102.5 -44t-30.5 -112v-8h1301v-338h-1723v524q0 121 95.5 204t267.5 97l700 58q111 10 163 31.5t52 78.5v76q0 98 -202 98h-389 q-139 0 -200 -42t-61 -156v-25h-423q-2 29 -3.5 54.5t-1.5 50.5z" />
<glyph unicode="3" horiz-adv-x="2000" d="M125 438q0 25 1 49.5t3 51.5h420q-2 -14 -2 -27.5v-24.5q0 -51 10 -82.5t34.5 -50t64.5 -24.5t100 -6h536q74 0 108 27.5t34 88.5q0 74 -41 104.5t-133 30.5h-447v340h463q119 0 119 119q0 76 -43 103.5t-142 27.5h-479q-94 0 -131 -32.5t-37 -128.5v-19h-420 q-2 25 -3 49.5t-1 46.5q0 117 33 199t100.5 132t173 72.5t250.5 22.5h617q139 0 236.5 -16t158.5 -53t89 -96.5t28 -147.5v-174q0 -66 -10.5 -111t-37 -76.5t-71.5 -51t-115 -31.5q74 -10 126 -29t84 -47.5t47.5 -70.5t15.5 -99v-187q0 -174 -121 -254.5t-373 -80.5h-635 q-166 0 -281.5 14t-191.5 67q-74 51 -105.5 142.5t-31.5 232.5z" />
<glyph unicode="4" horiz-adv-x="2000" d="M100 301v541l1039 647h518v-846h229v-342h-229v-301h-420v301h-1137zM465 643h772v485z" />
<glyph unicode="5" horiz-adv-x="2000" d="M156 385v36.5t2 39.5h415v-17q0 -74 56.5 -99.5t183.5 -25.5h451q98 0 142 31t44 111v90q0 66 -55.5 91.5t-165.5 25.5h-494q-59 0 -93 -15.5t-48 -60.5h-385v897h1608v-338h-1219v-240q57 59 145 77t218 18h409q262 0 387 -86t125 -279v-250q0 -115 -35 -192.5 t-107.5 -125.5t-182 -69.5t-259.5 -21.5h-526q-164 0 -280.5 18t-191.5 63.5t-109.5 123t-34.5 198.5z" />
<glyph unicode="6" horiz-adv-x="2000" d="M160 451v583q0 141 39 232.5t126 145.5t226 74.5t340 20.5h401q274 0 402.5 -87t128.5 -281v-41t-4 -43h-398q-8 72 -57 99.5t-147 27.5h-396q-123 0 -176 -40t-53 -143v-165q47 66 134 89t224 23h328q145 0 252.5 -16.5t178.5 -54t105.5 -101t34.5 -158.5v-297 q0 -174 -111.5 -255.5t-340.5 -81.5h-670q-295 0 -431 110.5t-136 358.5zM588 463q0 -82 47 -111.5t153 -29.5h429q104 0 152 34.5t48 112.5q0 80 -48 109.5t-152 29.5h-429q-104 0 -152 -33.5t-48 -111.5z" />
<glyph unicode="7" horiz-adv-x="2000" d="M168 1114v375h1677v-350l-940 -1139h-524l915 1114h-1128z" />
<glyph unicode="8" horiz-adv-x="2000" d="M143 395q0 82 12.5 144.5t41 105.5t76.5 71t120 42q-131 18 -188.5 105t-57.5 255q0 119 27 195t85 119t152.5 59t229.5 16h729q135 0 229.5 -16t152.5 -59t85 -119t27 -195q0 -168 -56.5 -255t-187.5 -105q72 -14 120 -42t76.5 -71t41 -105.5t12.5 -144.5 q0 -131 -32 -212t-100.5 -126t-180 -60t-271.5 -15h-561q-162 0 -274.5 14t-186.5 67q-66 47 -93.5 128t-27.5 204zM575 463q0 -82 47.5 -111.5t153.5 -29.5h459q104 0 153.5 34.5t49.5 112.5q0 80 -48.5 110.5t-154.5 30.5h-459q-104 0 -152.5 -33.5t-48.5 -113.5z M582 1055q0 -76 48 -103.5t152 -27.5h449q104 0 152.5 31.5t48.5 103.5q0 76 -48.5 102.5t-152.5 26.5h-449q-104 0 -152 -31t-48 -102z" />
<glyph unicode="9" horiz-adv-x="2000" d="M141 356q0 18 1 38t3 40h410q8 -70 57.5 -98.5t151.5 -28.5h428q123 0 176 38t53 142v166q-47 -66 -134 -89t-224 -23h-324q-145 0 -252.5 16t-178 54t-105.5 101.5t-35 159.5v295q0 340 453 340h665q295 0 432 -111.5t137 -359.5v-583q0 -141 -40.5 -232.5t-131 -144.5 t-233.5 -73.5t-350 -20.5h-412q-283 0 -415 88t-132 286zM596 1020q0 -82 49 -111.5t154 -29.5h426q104 0 152 33.5t48 113.5q0 82 -47 111.5t-153 29.5h-426q-104 0 -153.5 -34.5t-49.5 -112.5z" />
<glyph unicode=":" horiz-adv-x="999" d="M285 0v422h432v-422h-432zM285 631v422h432v-422h-432z" />
<glyph unicode=";" horiz-adv-x="999" d="M219 -123h33q78 0 110.5 23.5t32.5 83.5v16h-110v420h432v-469q0 -172 -85 -246t-280 -74q-63 0 -133 7v239zM285 631v422h432v-422h-432z" />
<glyph unicode="&#x3c;" horiz-adv-x="1705" d="M264 494v233l1178 487v-253l-854 -351l854 -348v-254z" />
<glyph unicode="=" horiz-adv-x="1705" d="M254 272v230h1198v-230h-1198zM254 719v231h1198v-231h-1198z" />
<glyph unicode="&#x3e;" horiz-adv-x="1705" d="M264 8v254l854 348l-854 351v253l1178 -487v-233z" />
<glyph unicode="?" horiz-adv-x="1650" d="M84 1110q0 115 35 190.5t109.5 121.5t191.5 64.5t280 18.5h328q281 0 406 -72.5t125 -248.5v-223q0 -123 -68 -201t-191 -96l-251 -39q-61 -10 -86 -28.5t-25 -72.5v-16h-381q-2 25 -3 48.5t-1 45.5q0 131 45 201.5t150 91.5l309 57q66 12 95.5 41t29.5 82 q0 78 -60.5 105.5t-193.5 27.5h-226q-66 0 -110.5 -9t-72 -33.5t-39 -66.5t-11.5 -106v-28h-375q-6 41 -8 76.5t-2 68.5zM543 0v391h411v-391h-411z" />
<glyph unicode="@" horiz-adv-x="2048" d="M82 520q0 342 209 598q147 182 357 277.5t470 95.5q176 0 324.5 -47t255.5 -131q135 -106 202.5 -240.5t67.5 -308.5q0 -168 -65.5 -307.5t-190.5 -239.5q-72 -57 -155.5 -86t-174.5 -29q-213 0 -221 160q-57 -84 -126.5 -121t-168.5 -37q-164 0 -247.5 86t-83.5 259 q0 123 38.5 227t105 179t156 118t191.5 43q152 0 229 -123l52 92h206l-153 -610q-2 -10 -3 -17.5t-1 -15.5q0 -59 63 -59q68 0 130.5 38.5t109.5 104.5t75.5 153t28.5 183q0 117 -46 216t-131 172t-203.5 113t-266.5 40q-297 0 -504 -146q-156 -111 -239.5 -274.5 t-83.5 -356.5q0 -152 53 -273.5t150.5 -207.5t235.5 -133t308 -47q164 0 315.5 47t280.5 139l97 -135q-311 -233 -693 -233q-197 0 -357.5 49t-285.5 145q-311 242 -311 643zM778 444q0 -86 35 -130t98 -44q82 0 146.5 57.5t89.5 159.5l51 209q-10 78 -51 117t-109 39 q-51 0 -98 -33t-83 -88t-57.5 -129t-21.5 -158z" />
<glyph unicode="A" horiz-adv-x="2195" d="M4 0l813 1489h580l798 -1489h-499l-144 248h-907l-145 -248h-496zM817 606h572l-289 527z" />
<glyph unicode="B" horiz-adv-x="2152" d="M150 0v1489h1341q496 0 496 -416q0 -121 -53.5 -196.5t-166.5 -118.5q141 -23 206 -109t65 -246q0 -215 -115 -309t-362 -94h-1411zM604 338h840q125 0 125 137q0 59 -34 95t-91 36h-840v-268zM604 909h799q117 0 117 123q0 55 -32 89t-85 34h-799v-246z" />
<glyph unicode="C" horiz-adv-x="2150" d="M141 528v406q0 168 38 278.5t123 176t218 92t324 26.5h508q197 0 330 -16t214 -80q72 -55 105 -147.5t33 -227.5v-40.5t-2 -43.5h-457v15q0 90 -58.5 129t-181.5 39h-364q-111 0 -181.5 -10.5t-112.5 -41t-57.5 -89t-15.5 -152.5v-207q0 -88 19.5 -142.5t63.5 -85 t113.5 -42t170.5 -11.5h264q94 0 160.5 7.5t109.5 29t62.5 61.5t19.5 107v16h461q2 -29 3 -55t1 -53q0 -139 -35 -232.5t-114 -152.5q-86 -63 -220.5 -81.5t-330.5 -18.5h-508q-88 0 -164 3t-141.5 14t-121 33.5t-104.5 59.5q-94 74 -133 178.5t-39 257.5z" />
<glyph unicode="D" horiz-adv-x="2226" d="M154 0v1489h1306q332 0 491.5 -117t159.5 -383v-512q0 -248 -123.5 -362.5t-394.5 -114.5h-1439zM608 362h770q145 0 212 58.5t67 185.5v262q0 133 -82 193.5t-254 60.5h-713v-760z" />
<glyph unicode="E" horiz-adv-x="1904" d="M150 0v1489h1626v-363h-1172v-225h1104v-313h-1104v-228h1190v-360h-1644z" />
<glyph unicode="F" horiz-adv-x="1800" d="M150 0v1489h1626v-363h-1172v-266h1104v-360h-1104v-500h-454z" />
<glyph unicode="G" horiz-adv-x="2154" d="M125 528v406q0 168 38 278.5t123 176t218 92t323 26.5h508q197 0 331 -16t216 -80q72 -55 104.5 -147.5t32.5 -227.5v-40.5t-2 -43.5h-456v4q0 61 -20.5 97.5t-61.5 53.5t-106.5 22.5t-153.5 5.5h-265q-111 0 -181.5 -10.5t-111 -41t-56 -89t-15.5 -152.5v-207 q0 -88 19.5 -142.5t63.5 -85t113.5 -42t169.5 -11.5h263q88 0 153.5 7.5t107.5 24.5t62.5 48t20.5 78q0 10 -1 21.5t-3 23.5h-535v301h1008v-489q0 -113 -42 -188t-128 -119t-217.5 -62t-309.5 -18h-506q-88 0 -163.5 3t-142 14t-122 33.5t-104.5 59.5q-94 74 -133 178.5 t-39 257.5z" />
<glyph unicode="H" horiz-adv-x="2150" d="M154 0v1489h454v-547h932v547h457v-1489h-457v582h-932v-582h-454z" />
<glyph unicode="I" horiz-adv-x="794" d="M170 0v1489h455v-1489h-455z" />
<glyph unicode="J" horiz-adv-x="1697" d="M45 449v196h426q0 -14 -1 -27.5t-1 -25.5q0 -68 10 -114t35 -73.5t68 -39t110 -11.5h205q61 0 99 12.5t58.5 38t28 65.5t7.5 95v924h454v-1069q0 -98 -32.5 -180t-86.5 -136q-78 -74 -193.5 -97t-283.5 -23h-317q-166 0 -278.5 21.5t-181.5 75.5t-97.5 143t-28.5 225z " />
<glyph unicode="K" horiz-adv-x="2101" d="M160 0v1489h454v-553h191l596 553h604l-805 -735l911 -754h-632l-674 563h-191v-563h-454z" />
<glyph unicode="L" horiz-adv-x="1654" d="M182 0v1489h455v-1129h991v-360h-1446z" />
<glyph unicode="M" horiz-adv-x="2711" d="M154 0v1489h671l531 -930l540 930h662v-1489h-440v1061l-615 -1061h-297l-610 1061v-1061h-442z" />
<glyph unicode="N" horiz-adv-x="2310" d="M154 0v1489h673l887 -1092v1092h453v-1489h-666l-893 1083v-1083h-454z" />
<glyph unicode="O" horiz-adv-x="2252" d="M119 528v406q0 174 34.5 286.5t127.5 182.5q92 68 232 86t345 18h535q205 0 347 -18.5t232 -85.5q86 -66 123 -175.5t37 -275.5v-415q0 -166 -37 -275.5t-123 -175.5q-92 -70 -234.5 -87t-344.5 -17h-533q-100 0 -185 3t-157 13t-131 31.5t-106 56.5q-92 68 -127 174.5 t-35 267.5zM582 635q0 -88 22.5 -143.5t70.5 -86t123.5 -41t184.5 -10.5h289q109 0 184.5 10.5t123.5 41t69.5 87t21.5 146.5v211q0 90 -21.5 146.5t-69.5 87t-124 41t-184 10.5h-291q-111 0 -186.5 -10.5t-123.5 -42t-68.5 -89t-20.5 -151.5v-207z" />
<glyph unicode="P" horiz-adv-x="1996" d="M156 0v1489h1142q131 0 227.5 -12.5t168.5 -49.5q121 -63 168 -183t47 -314q0 -150 -23.5 -256.5t-76 -174t-138.5 -98t-209 -30.5h-850v-371h-456zM612 741h670q96 0 130 46.5t34 156.5q0 90 -38 132t-126 42h-670v-377z" />
<glyph unicode="Q" horiz-adv-x="2252" d="M127 524v406q0 174 35 285.5t127 181.5q92 68 232.5 86t344.5 18h535q205 0 346 -18.5t233 -85.5q90 -66 125 -175.5t35 -273.5v-330q0 -61 -3 -113t-15 -97l176 -107l-156 -293l-162 103q-37 -43 -91 -69t-124.5 -39t-162 -17t-201.5 -4h-533q-201 0 -343 17t-236 87 q-92 68 -127 173.5t-35 264.5zM590 631q0 -141 69.5 -210t221.5 -69h452q90 0 151.5 5.5t98.5 21.5q-25 8 -57.5 26.5t-73.5 43.5l-338 200l162 256l293 -172q72 -43 133 -90q0 47 -1 80t-1 53v72q0 90 -21.5 145.5t-69.5 86t-124 40.5t-185 10h-311q-111 0 -186.5 -10 t-123.5 -41.5t-68.5 -89t-20.5 -151.5v-207z" />
<glyph unicode="R" horiz-adv-x="2103" d="M160 0v1489h1196q168 0 284.5 -21.5t189.5 -77t104.5 -149.5t31.5 -240q0 -184 -54 -282t-194 -131q236 -55 236 -283v-305h-455v227q0 47 -11 77t-36 47.5t-63.5 23.5t-94.5 6h-678v-381h-456zM616 754h723q96 0 130 45t34 151q0 86 -38 127t-126 41h-723v-364z" />
<glyph unicode="S" horiz-adv-x="2097" d="M127 377q0 27 6 119h449v-27q0 -47 11 -74.5t35.5 -43t65.5 -20.5t101 -5h571q82 0 119 27.5t37 95.5q0 41 -13.5 65.5t-41 37.5t-68.5 18t-96 8l-715 22q-129 4 -217 25.5t-141.5 72t-76 134t-22.5 212.5q0 123 23.5 207t81.5 142q82 78 206.5 96t305.5 18h694 q254 0 369.5 -92t115.5 -307q0 -18 -1 -38.5t-3 -43.5h-438v6q0 147 -150 148h-524q-106 0 -160.5 -19.5t-54.5 -97.5q0 -70 42 -94.5t136 -28.5l748 -18q129 -4 217 -31t143 -84t80 -147.5t25 -221.5q0 -141 -34 -231t-134 -154q-70 -45 -183.5 -58t-277.5 -13h-606 q-172 0 -292 16t-193.5 59t-106.5 120t-33 200z" />
<glyph unicode="T" horiz-adv-x="1798" d="M49 1124v365h1700v-365h-623v-1124h-454v1124h-623z" />
<glyph unicode="U" horiz-adv-x="2150" d="M150 465v1024h454v-883q0 -82 17.5 -132t60.5 -76.5t113.5 -36t175.5 -9.5h258q88 0 148.5 10.5t99.5 38t56 76.5t17 129v883h455v-1024q0 -139 -37 -231.5t-113.5 -148.5t-195.5 -79.5t-285 -23.5h-508q-199 0 -335 22.5t-221 77.5t-122.5 148.5t-37.5 234.5z" />
<glyph unicode="V" horiz-adv-x="2144" d="M20 1489h496l559 -1069l594 1069h483l-794 -1489h-551z" />
<glyph unicode="W" horiz-adv-x="2680" d="M18 1489h453l307 -1059l381 1059h418l360 -1059l328 1059h453l-498 -1489h-512l-344 1026l-350 -1026h-520z" />
<glyph unicode="X" horiz-adv-x="2170" d="M8 0l733 756l-678 733h568l463 -522l467 522h548l-657 -733l715 -756h-586l-487 522l-494 -522h-592z" />
<glyph unicode="Y" horiz-adv-x="2103" d="M-6 1489h559l489 -592l512 592h539l-823 -954v-535h-455v535z" />
<glyph unicode="Z" horiz-adv-x="1900" d="M78 0v365l1061 763h-1022v361h1687v-361l-1054 -763h1079v-365h-1751z" />
<glyph unicode="[" horiz-adv-x="958" d="M188 0v1487h652v-348h-240v-789h240v-350h-652z" />
<glyph unicode="\" horiz-adv-x="745" d="M-106 1507h227l790 -1697h-227z" />
<glyph unicode="]" horiz-adv-x="958" d="M162 0v350h239v789h-239v348h651v-1487h-651z" />
<glyph unicode="^" horiz-adv-x="2048" d="M414 899l465 563h288l465 -563h-264l-344 342l-346 -342h-264z" />
<glyph unicode="_" d="M0 -244h1024v-239h-1024v239z" />
<glyph unicode="`" d="M63 1460h398l268 -284h-192z" />
<glyph unicode="a" horiz-adv-x="1548" d="M68 338q0 104 28.5 172t93 105.5t165 53t245.5 15.5q166 0 280.5 -20.5t184.5 -69.5v113q0 114 -144 114h-3h-310q-111 0 -110 -80h-381v13q0 174 130 243.5t404 69.5h371q215 0 318.5 -84t103.5 -264v-719h-379v127q-59 -76 -181 -108.5t-311 -32.5q-139 0 -236 16 t-156.5 56t-86 109t-26.5 171zM453 346q0 -63 45 -81.5t143 -18.5h231q98 0 143.5 22.5t45.5 85.5t-45 82t-144 19h-231q-98 0 -143 -22.5t-45 -86.5z" />
<glyph unicode="b" horiz-adv-x="1658" d="M147 0v1489h379v-631q33 117 147.5 156t327.5 39q150 0 254.5 -19.5t170 -64.5t95 -116t29.5 -171v-348q0 -98 -30.5 -166t-98 -110t-173 -59t-253.5 -17q-115 0 -199.5 10t-143 33.5t-89.5 63.5t-37 99v-188h-379zM520 449q0 -98 55.5 -137.5t184.5 -39.5h172 q125 0 182 38t57 141v131q0 98 -56 139t-183 41h-172q-135 0 -187.5 -40t-52.5 -147v-126z" />
<glyph unicode="c" horiz-adv-x="1597" d="M109 373v286q0 113 25.5 191t83.5 126t155.5 69.5t238.5 21.5h359q262 0 384 -85t122 -275q0 -41 -7 -86h-358v6q0 86 -49 120.5t-160 34.5h-186q-129 0 -178.5 -41t-49.5 -151v-135q0 -100 52.5 -142.5t175.5 -42.5h166q63 0 107 6.5t72 24.5t40 52t12 89h377 q2 -16 2 -32.5v-32.5q0 -109 -29.5 -183.5t-92 -120.5t-160 -66.5t-234.5 -20.5h-365q-131 0 -226 21.5t-156.5 67.5t-91 119.5t-29.5 178.5z" />
<glyph unicode="d" horiz-adv-x="1658" d="M109 334v348q0 100 29.5 171t95 116t170 64.5t253.5 19.5q106 0 187.5 -8.5t139.5 -31t95 -60.5t54 -95v631h378v-1489h-378v188q-6 -59 -37 -99t-89.5 -63.5t-143.5 -33.5t-199 -10q-147 0 -253 17t-173.5 59t-98 110t-30.5 166zM487 451q0 -102 57.5 -140.5 t182.5 -38.5h172q129 0 184.5 39t55.5 138v126q0 106 -52.5 146.5t-187.5 40.5h-172q-127 0 -183.5 -41t-56.5 -139v-131z" />
<glyph unicode="e" horiz-adv-x="1548" d="M109 373v286q0 199 124.5 303.5t362.5 104.5h354q240 0 364 -104.5t124 -303.5v-225h-951q0 -8 -1 -15t-1 -13q0 -92 53.5 -131t172.5 -39h159q49 0 85 3t60.5 14t40 33.5t23.5 63.5h357v-16q0 -190 -117 -269t-369 -79h-352q-242 0 -365.5 100t-123.5 287zM487 666h584 v4q0 78 -50 107.5t-163 29.5h-156q-113 0 -164 -29.5t-51 -107.5v-4z" />
<glyph unicode="f" horiz-adv-x="948" d="M35 766v287h184v34q0 113 25.5 191t82 124t144.5 66.5t215 20.5h242v-262q-29 2 -53.5 3t-47.5 1q-121 0 -175 -32t-54 -112v-16t2 -18h348v-287h-348v-766h-381v766h-184z" />
<glyph unicode="g" horiz-adv-x="1652" d="M125 -29h379q4 -53 52 -67.5t146 -14.5h216q117 0 169 52.5t52 171.5q0 16 -1 31.5t-3 33.5q-35 -59 -133.5 -80.5t-264.5 -21.5q-162 0 -277.5 14t-189 52t-108.5 104.5t-35 171.5v289q0 195 129 277.5t410 82.5q197 0 311.5 -40t157.5 -134v160h378v-1049 q0 -174 -132 -267t-380 -93h-350q-139 0 -239.5 10t-164 44t-93 94.5t-29.5 162.5v16zM500 512q0 -92 54 -128t179 -36h168q123 0 178.5 34t55.5 132v121q0 92 -55.5 129t-178.5 37h-168q-66 0 -110.5 -8.5t-72.5 -29t-39 -53t-11 -81.5v-117z" />
<glyph unicode="h" horiz-adv-x="1652" d="M147 0v1489h379v-604q37 55 83 90t103.5 54.5t128 26.5t158.5 7q514 0 514 -383v-680h-378v530q0 63 -11.5 107.5t-44 71t-92 38t-156.5 11.5q-160 0 -232.5 -55.5t-72.5 -184.5v-518h-379z" />
<glyph unicode="i" horiz-adv-x="696" d="M160 0v1053h379v-1053h-379zM160 1180v309h379v-309h-379z" />
<glyph unicode="j" horiz-adv-x="700" d="M27 -80q14 -2 27.5 -4t25.5 -2q49 0 70.5 27.5t21.5 87.5v1024h379v-1112q0 -86 -18.5 -143.5t-61.5 -91.5t-113.5 -48t-175.5 -14q-35 0 -74.5 3t-80.5 7v266zM172 1180v309h379v-309h-379z" />
<glyph unicode="k" horiz-adv-x="1525" d="M156 0v1489h381v-776h90l327 340h498l-504 -492l574 -561h-480l-415 420h-90v-420h-381z" />
<glyph unicode="l" horiz-adv-x="696" d="M160 0v1489h379v-1489h-379z" />
<glyph unicode="m" horiz-adv-x="2492" d="M147 0v1047h379v-162q33 53 72 88t89 54.5t112.5 27.5t140.5 8q199 0 311.5 -55.5t149.5 -184.5q55 129 158.5 184.5t275.5 55.5q264 0 392 -93t128 -290v-680h-379v530q0 61 -9 105.5t-37.5 71t-80 39t-137.5 12.5q-141 0 -202.5 -55.5t-61.5 -184.5v-518h-379v530 q0 61 -9 105.5t-38 71t-82 39t-141 12.5q-143 0 -208 -55.5t-65 -184.5v-518h-379z" />
<glyph unicode="n" horiz-adv-x="1650" d="M147 0v1047h379v-162q37 55 83 90t103.5 54.5t128 26.5t158.5 7q514 0 514 -383v-680h-378v530q0 63 -11.5 107.5t-44 71t-92 38t-156.5 11.5q-166 0 -235.5 -57.5t-69.5 -192.5v-508h-379z" />
<glyph unicode="o" horiz-adv-x="1646" d="M109 373v286q0 111 27.5 189t89 126t161.5 70.5t246 22.5h381q139 0 238.5 -22.5t163 -69.5t93 -123t29.5 -180v-293q0 -111 -30.5 -186.5t-94 -121.5t-163 -65.5t-236.5 -19.5h-379q-135 0 -234.5 20.5t-164 65.5t-96 118.5t-31.5 182.5zM487 455q0 -104 58.5 -144.5 t189.5 -40.5h178q129 0 187.5 40t58.5 147v139q0 104 -57.5 145t-188.5 41h-178q-70 0 -117 -9t-76.5 -31.5t-42 -59.5t-12.5 -92v-135z" />
<glyph unicode="p" horiz-adv-x="1658" d="M147 -356v1409h379v-193q12 119 126 163t343 44q147 0 253 -17.5t173.5 -59.5t98 -109.5t30.5 -165.5v-348q0 -195 -131 -280t-418 -85q-106 0 -187 7t-139.5 28.5t-95 57.5t-53.5 95v-546h-379zM520 473q0 -106 52.5 -145t187.5 -39h172q127 0 183 40t56 138v131 q0 102 -57 140t-182 38h-172q-129 0 -184.5 -39t-55.5 -137v-127z" />
<glyph unicode="q" horiz-adv-x="1658" d="M109 367v348q0 98 30.5 165.5t98 109.5t173 59.5t253.5 17.5q229 0 342.5 -44t126.5 -163v193h378v-1409h-378v546q-16 -59 -53.5 -95t-95.5 -57.5t-139 -28.5t-188 -7q-287 0 -417.5 85t-130.5 280zM487 467q0 -98 56.5 -138t183.5 -40h172q135 0 187.5 39t52.5 145v127 q0 98 -55.5 137t-184.5 39h-172q-125 0 -182.5 -38t-57.5 -140v-131z" />
<glyph unicode="r" horiz-adv-x="1343" d="M160 0v1053h379v-197q59 117 149 165t236 48q109 0 185.5 -21.5t124.5 -70.5t70.5 -126t22.5 -187q0 -25 -1 -50.5t-3 -54.5h-334v16q0 180 -211 181q-115 0 -177 -51.5t-62 -143.5v-561h-379z" />
<glyph unicode="s" horiz-adv-x="1593" d="M92 334h402v-4q0 -51 51 -72.5t155 -21.5h277q80 0 115.5 17t35.5 64q0 80 -155 82l-375 7q-127 2 -221 17t-156.5 51t-93.5 96.5t-31 156.5q0 94 31 159.5t93.5 105.5t159.5 57.5t230 17.5h430q207 0 305.5 -76t100.5 -235h-379q-29 61 -188 61h-265q-70 0 -103.5 -13 t-33.5 -54q0 -45 43 -56.5t135 -13.5l463 -6q203 -4 297 -82t94 -252q0 -102 -27.5 -171t-85 -110t-147.5 -57t-213 -16h-385q-147 0 -251.5 13t-172 52t-100.5 106.5t-35 176.5z" />
<glyph unicode="t" horiz-adv-x="1345" d="M43 778v275h213v252h379v-252h592v-275h-592v-358q0 -80 31.5 -115t115.5 -35q92 0 128 33t36 119q0 14 -1 29.5t-3 31.5h336q4 -25 4 -47v-45q0 -109 -30.5 -185.5t-96 -125.5t-166 -71.5t-241.5 -22.5q-133 0 -227.5 18.5t-153 61.5t-85 112.5t-26.5 171.5v428h-213z " />
<glyph unicode="u" horiz-adv-x="1650" d="M135 379v674h379v-537q0 -61 10.5 -103t41 -70t87 -40t148.5 -12q88 0 149.5 11t100.5 40t56 77t17 120v514h379v-1053h-379v162q-37 -55 -83 -90t-103 -54.5t-128 -25.5t-159 -6q-266 0 -391 94t-125 299z" />
<glyph unicode="v" horiz-adv-x="1499" d="M12 1053h426l316 -738l327 738h420l-506 -1053h-477z" />
<glyph unicode="w" horiz-adv-x="2244" d="M16 1053h418l248 -746l274 746h340l265 -746l266 746h403l-409 -1053h-492l-207 584l-219 -584h-487z" />
<glyph unicode="x" horiz-adv-x="1497" d="M23 0l426 553l-412 500h502l202 -275l201 275h488l-390 -488l459 -565h-493l-258 348l-246 -348h-479z" />
<glyph unicode="y" horiz-adv-x="1452" d="M23 1053h417l293 -684l303 684h414l-526 -1135q-39 -86 -80 -141.5t-94 -85.5q-47 -27 -107.5 -37t-138.5 -10q-39 0 -82 2t-90 6v250q45 -6 82 -6q92 0 142 36.5t69 118.5h-142z" />
<glyph unicode="z" horiz-adv-x="1296" d="M55 0v266l637 498h-600v289h1133v-291l-602 -475h622v-287h-1190z" />
<glyph unicode="{" d="M152 410v241q10 0 18 -1t18 -1q121 0 169.5 56.5t48.5 187.5v254q0 106 17 175t89 108q53 29 128 39t173 10q18 0 37.5 -1t42.5 -1v-242q-10 0 -20.5 1t-20.5 1q-53 0 -85 -9t-50.5 -29.5t-24.5 -56.5t-6 -87v-240q0 -66 -9 -114t-32.5 -81.5t-64.5 -55t-105 -34.5 q63 -12 105.5 -33.5t65 -55t31.5 -81t9 -112.5v-242q0 -51 6 -86t24.5 -55.5t50.5 -29.5t83 -9q10 0 21.5 1t21.5 1v-242q-23 0 -42.5 -1t-39.5 -1q-98 0 -172 10.5t-127 38.5q-72 39 -89 106.5t-17 174.5v256q0 133 -48.5 187.5t-169.5 54.5q-8 0 -17 -1t-19 -1z" />
<glyph unicode="|" d="M393 -483v2048h240v-2048h-240z" />
<glyph unicode="}" d="M133 -172q12 0 22.5 -1t20.5 -1q51 0 84 9t50.5 29.5t23.5 55.5t6 86v242q0 63 9 111.5t31.5 82t63.5 55t107 33.5q-66 12 -107 34t-63.5 55.5t-31.5 82t-9 113.5v240q0 51 -6 86t-23.5 56.5t-48.5 30.5t-82 9q-10 0 -22.5 -1t-24.5 -1v242q23 0 42.5 1t37.5 1 q98 0 173 -10.5t128 -38.5q72 -39 89.5 -108t17.5 -175v-254q0 -133 48 -188.5t169 -55.5q10 0 18 1t18 1v-241q-10 0 -18 1t-18 1q-121 0 -169 -55.5t-48 -186.5v-256q0 -106 -17.5 -175t-89.5 -108q-51 -29 -123 -38t-168 -9q-23 0 -45 1t-45 1v242z" />
<glyph unicode="~" horiz-adv-x="1705" d="M178 401v254q111 72 206 108t181 36t158 -17.5t137 -40.5q74 -25 146.5 -49t152.5 -24q90 0 179 38.5t192 112.5v-254q-98 -68 -191.5 -102.5t-185.5 -34.5t-172 29q-111 39 -213 70.5t-207 31.5q-92 0 -183 -40t-200 -118z" />
<glyph unicode="&#xa1;" horiz-adv-x="999" d="M289 0v371l22 512h387l13 -512v-371h-422zM289 1067v422h422v-422h-422z" />
<glyph unicode="&#xa2;" horiz-adv-x="2000" d="M346 440v178q0 115 27.5 199t88 138.5t156 80t232.5 25.5h227l62 215h223l-64 -221q217 -10 316.5 -94t99.5 -259q0 -41 -6 -86h-358q0 139 -131 152l-138 -502h39q63 0 107.5 6.5t71 24.5t39 51t12.5 88h379q2 -16 2 -31.5v-31.5q0 -109 -30 -183.5t-92.5 -120.5 t-159.5 -66.5t-235 -20.5h-215l-69 -265h-232l74 267q-127 14 -210 45.5t-131 85t-66.5 133.5t-18.5 192zM727 449q0 -160 129 -173l141 500h-41q-66 0 -109.5 -9t-70 -30.5t-38 -59.5t-11.5 -93v-135z" />
<glyph unicode="&#xa3;" horiz-adv-x="2000" d="M88 580v280h164v213q0 211 134 322.5t396 111.5h545q287 0 421 -115.5t134 -365.5v-6h-407v12q0 76 -37 105.5t-125 29.5h-486q-78 0 -110.5 -26.5t-32.5 -98.5v-182h641v-280h-641q-2 -76 -24.5 -134.5t-71.5 -105.5h1319v-340h-1792v344q68 0 102.5 26.5t34.5 71.5v138 h-164z" />
<glyph unicode="&#xa4;" horiz-adv-x="1241" d="M61 444l201 203q-72 106 -72 238q0 135 72 237l-201 205l117 117l203 -201q49 35 108.5 54.5t131.5 19.5q139 0 243 -74l201 201l119 -117l-201 -205q70 -106 70 -237t-70 -238l201 -203l-119 -118l-201 202q-53 -39 -112.5 -56t-128.5 -17q-135 0 -242 73l-203 -202z M362 885q0 -53 20.5 -101.5t55.5 -83t82 -55t103 -20.5q53 0 100 20.5t83 55t56.5 82.5t20.5 102q0 53 -20.5 100t-56.5 83t-83 56.5t-100 20.5t-101.5 -20.5t-83.5 -56.5t-55.5 -83t-20.5 -100z" />
<glyph unicode="&#xa5;" horiz-adv-x="2029" d="M-23 1489h496l545 -660l561 660h469l-358 -416h321v-162h-461l-153 -176h614v-162h-754l-30 -38v-535h-426v535l-35 38h-746v162h607l-150 176h-457v162h316z" />
<glyph unicode="&#xa6;" d="M393 -350v758h240v-758h-240zM393 674v758h240v-758h-240z" />
<glyph unicode="&#xa7;" horiz-adv-x="1654" d="M162 735q0 98 54 159.5t157 78.5q-145 90 -146 256q0 82 28 135t84 85t141 45t198 13h385q174 0 252 -58t78 -204v-31h-306q-10 43 -36.5 60.5t-77.5 17.5h-299q-66 0 -95.5 -13t-29.5 -52q0 -41 38 -52.5t124 -23.5l434 -64q178 -27 263 -96t85 -192q0 -205 -207 -230 q160 -109 160 -276q0 -92 -27.5 -151.5t-84 -95.5t-141.5 -50t-200 -14h-440q-178 0 -257 63.5t-79 218.5q0 16 1 34.5t3 37.5h305v-21q0 -53 27 -75.5t86 -22.5h381q90 0 90 72q0 37 -25.5 52t-83.5 26l-489 82q-92 14 -157.5 35.5t-108.5 54t-63.5 81t-20.5 115.5z M434 840q0 -57 38 -84t124 -41l575 -97q57 43 58 93q0 51 -42 76.5t-134 41.5l-574 103q-45 -43 -45 -92z" />
<glyph unicode="&#xa8;" d="M109 1186v262h327v-262h-327zM588 1186v262h327v-262h-327z" />
<glyph unicode="&#xa9;" horiz-adv-x="1705" d="M106 737q0 147 56.5 283.5t165.5 247.5q104 106 237 161.5t287 55.5t289 -55.5t243 -163.5q106 -106 160.5 -240.5t54.5 -288.5t-54 -287t-159 -237q-111 -111 -249 -167t-285 -56t-282.5 56t-243.5 165q-109 109 -164.5 243t-55.5 283zM242 737q0 -121 47 -231.5 t135 -198.5t197.5 -134t232.5 -46q121 0 232.5 46t203.5 136q86 86 130 193.5t44 234.5q0 125 -45 235.5t-131 196.5q-88 88 -197.5 134.5t-236.5 46.5q-256 0 -430 -179q-88 -90 -135 -200.5t-47 -233.5zM446 731q0 104 29 187t83 141.5t130 90.5t168 32q160 0 258 -80 t107 -211h-213q-6 68 -47 104.5t-109 36.5q-80 0 -128 -74.5t-48 -218.5q0 -285 186 -284q66 0 106 40t46 115h215q-6 -143 -106.5 -230t-264.5 -87q-94 0 -170 29.5t-130 87t-83 138.5t-29 183z" />
<glyph unicode="&#xaa;" horiz-adv-x="1161" d="M51 987q0 74 21.5 121t69.5 74.5t124 38t185 10.5q125 0 209.5 -14.5t138.5 -49.5v78q0 82 -111 82h-231q-84 0 -84 -57h-285v10q0 123 96.5 171t304.5 48h277q317 0 317 -244v-503h-284v88q-45 -53 -136.5 -76t-232.5 -23q-104 0 -177 11.5t-117 40t-64.5 75.5 t-20.5 119zM340 993q0 -43 34 -56t107 -13h174q72 0 107 15t35 60t-34 57.5t-108 12.5h-174q-72 0 -106.5 -15.5t-34.5 -60.5z" />
<glyph unicode="&#xab;" horiz-adv-x="1189" d="M80 530l235 322h312l-236 -322l236 -313h-312zM563 530l234 322h311l-234 -322l234 -313h-311z" />
<glyph unicode="&#xac;" horiz-adv-x="1705" d="M254 639v227h1198v-501h-229v274h-969z" />
<glyph unicode="&#xad;" horiz-adv-x="1009" d="M160 344v381h674v-381h-674z" />
<glyph unicode="&#xae;" horiz-adv-x="1705" d="M106 737q0 150 58.5 288t169.5 249q104 104 235 157.5t283 53.5q156 0 293 -57.5t246 -167.5q104 -104 156 -238.5t52 -284.5q0 -156 -56 -291t-165 -239q-111 -106 -246 -161.5t-280 -55.5q-152 0 -287 58t-243 169q-104 109 -160 241t-56 279zM244 737 q0 -121 44 -228.5t130 -195.5q88 -92 199.5 -139t234.5 -47q121 0 231.5 45t200.5 131q88 86 134 196.5t46 237.5q0 123 -43 232.5t-129 195.5q-90 92 -200.5 138.5t-237.5 46.5q-250 0 -426 -172q-92 -92 -138 -205t-46 -236zM537 344v819h329q178 0 266.5 -60.5 t88.5 -176.5q0 -80 -45.5 -138.5t-128.5 -82.5l182 -361h-248l-154 326h-65v-326h-225zM762 803h80q147 0 147 106q0 59 -39 86t-121 27h-67v-219z" />
<glyph unicode="&#xaf;" d="M109 1235v164h806v-164h-806z" />
<glyph unicode="&#xb0;" horiz-adv-x="673" d="M27 1155q0 66 24.5 123t66.5 99t98 65.5t122 23.5q63 0 119.5 -24.5t99.5 -66.5t67.5 -98t24.5 -122q0 -63 -24.5 -119.5t-66.5 -99.5t-99.5 -67.5t-122.5 -24.5q-66 0 -122 24.5t-97 66.5t-65.5 98.5t-24.5 121.5zM172 1157q0 -70 47 -118t119 -48q70 0 117 49.5 t47 116.5q0 68 -47 116t-117 48q-68 0 -117 -47t-49 -117z" />
<glyph unicode="&#xb1;" horiz-adv-x="1705" d="M254 -18v231h1198v-231h-1198zM254 690v232h481v319h238v-319h479v-232h-479v-319h-238v319h-481z" />
<glyph unicode="&#xb2;" horiz-adv-x="1320" d="M96 1225q0 82 21.5 135t67.5 85t121 44t181 12h400q176 0 257 -51t81 -164v-147q0 -84 -59.5 -138.5t-176.5 -62.5l-526 -41q-88 -6 -88 -94v-4h860v-203h-1137v315q0 72 62.5 121t175.5 60l463 34q72 4 106.5 17.5t34.5 48.5v45q0 59 -133 59h-256q-92 0 -132 -24.5 t-40 -93.5v-15h-281q0 16 -1 31.5t-1 30.5z" />
<glyph unicode="&#xb3;" horiz-adv-x="1320" d="M82 858q0 16 1 30.5t3 31.5h276q-2 -10 -2 -17.5v-13.5q0 -61 31 -79.5t109 -18.5h352q94 0 94 69q0 45 -27.5 63.5t-87.5 18.5h-294v203h305q78 0 78 72q0 45 -28 61t-93 16h-316q-63 0 -86.5 -18.5t-23.5 -77.5v-10h-279q0 14 -1 28.5t-1 28.5q0 141 87 198.5t280 57.5 h407q184 0 261 -42t77 -146v-105q0 -78 -31.5 -112.5t-121.5 -48.5q98 -14 139 -46t41 -102v-113q0 -104 -80 -152t-246 -48h-420q-111 0 -186.5 8t-126.5 41q-47 29 -68.5 84t-21.5 139z" />
<glyph unicode="&#xb4;" d="M295 1176l268 284h398l-474 -284h-192z" />
<glyph unicode="&#xb6;" d="M29 1130q0 76 26.5 140.5t76.5 110.5t123 72t163 26h579v-123h-106v-1356h-174v1356h-152v-1356h-174v784q-84 2 -150.5 30t-113.5 73t-72.5 107.5t-25.5 135.5z" />
<glyph unicode="&#xb7;" horiz-adv-x="999" d="M270 750q0 47 18.5 89t49.5 72.5t73 48t89 17.5t89 -18.5t72.5 -49t49 -71.5t18.5 -88q0 -49 -18.5 -91.5t-49 -73t-72.5 -49t-89 -18.5t-89 18.5t-73 49t-49.5 73t-18.5 91.5z" />
<glyph unicode="&#xb8;" d="M242 -324h333q39 0 39 41t-43 41h-135q-35 0 -44 18.5t-9 57.5v166h129v-109h168q68 0 93.5 -34.5t25.5 -114.5v-53q0 -82 -25.5 -116t-95.5 -34h-436v137z" />
<glyph unicode="&#xb9;" horiz-adv-x="1320" d="M190 1247l431 242h331v-893h-288v672l-332 -207z" />
<glyph unicode="&#xba;" horiz-adv-x="1234" d="M82 1012v200q0 78 20.5 132.5t66.5 89t121 50t185 15.5h285q211 0 302 -64.5t91 -211.5v-207q0 -154 -93 -214.5t-300 -60.5h-283q-205 0 -300 59.5t-95 211.5zM367 1069q0 -72 43 -100.5t141 -28.5h135q98 0 141 28.5t43 102.5v98q0 72 -43 100.5t-141 28.5h-135 q-104 0 -144 -27.5t-40 -105.5v-96z" />
<glyph unicode="&#xbb;" horiz-adv-x="1189" d="M80 217l235 313l-235 322h311l236 -322l-236 -313h-311zM563 217l234 313l-234 322h311l234 -322l-234 -313h-311z" />
<glyph unicode="&#xbc;" horiz-adv-x="2863" d="M180 1264l412 225h317v-834h-274v627l-318 -192zM918 -18l829 1525h195l-830 -1525h-194zM1665 168v303l653 363h328v-474h143v-192h-143v-168h-264v168h-717zM1894 360h488v273z" />
<glyph unicode="&#xbd;" horiz-adv-x="2863" d="M180 1264l412 225h317v-834h-274v627l-318 -192zM918 -18l829 1525h195l-830 -1525h-194zM1694 0v293q0 68 60.5 115t168.5 55l440 31q70 6 103 18t33 45v41q0 55 -127 55h-246q-86 0 -125 -22.5t-39 -87.5v-15h-266q-2 16 -2 30.5v29.5q0 76 19.5 125t64.5 78.5 t115.5 41t172.5 11.5h381q168 0 246 -47t78 -152v-137q0 -78 -57.5 -129t-167.5 -60l-502 -38q-84 -6 -84 -86v-7h819v-188h-1085z" />
<glyph unicode="&#xbe;" horiz-adv-x="2863" d="M78 901q0 14 1 27.5t3 27.5h264q-2 -8 -2 -15v-13q0 -57 28.5 -74.5t102.5 -17.5h340q88 0 88 65q0 41 -25.5 58.5t-84.5 17.5h-281v190h291q76 0 76 68q0 41 -27 57.5t-90 16.5h-301q-59 0 -83 -18.5t-24 -73.5v-11h-264q-2 14 -2 27.5v28.5q0 131 83 184t267 53h389 q176 0 249 -39t73 -137v-96q0 -72 -29.5 -104.5t-115.5 -47.5q92 -12 131 -41.5t39 -95.5v-104q0 -188 -312 -189h-399q-104 0 -177 8.5t-120 36.5q-47 29 -67.5 81t-20.5 130zM920 -18l829 1525h195l-830 -1525h-194zM1667 168v303l653 363h328v-474h143v-192h-143v-168 h-264v168h-717zM1896 360h488v273z" />
<glyph unicode="&#xbf;" horiz-adv-x="1650" d="M92 301v223q0 123 67.5 200t190.5 95l252 39q66 10 88.5 29.5t22.5 70.5v17h381q2 -25 3 -48.5t1 -45.5q0 -131 -45 -201t-150 -90l-307 -58q-66 -12 -95.5 -40.5t-29.5 -81.5q0 -78 59.5 -106t192.5 -28h225q66 0 111 9.5t72.5 34t39 65.5t11.5 107v28h374 q6 -41 8.5 -76.5t2.5 -68.5q0 -115 -35 -190.5t-109.5 -122t-191.5 -66t-281 -19.5h-327q-281 0 -406 74t-125 250zM696 1094v391h412v-391h-412z" />
<glyph unicode="&#xc0;" horiz-adv-x="2195" d="M4 0l813 1489h580l798 -1489h-499l-144 248h-907l-145 -248h-496zM649 1900h398l268 -284h-192zM817 606h572l-289 527z" />
<glyph unicode="&#xc1;" horiz-adv-x="2195" d="M4 0l813 1489h580l798 -1489h-499l-144 248h-907l-145 -248h-496zM817 606h572l-289 527zM881 1616l268 284h398l-474 -284h-192z" />
<glyph unicode="&#xc2;" horiz-adv-x="2195" d="M4 0l813 1489h580l798 -1489h-499l-144 248h-907l-145 -248h-496zM670 1616l268 284h320l268 -284h-192l-236 149l-236 -149h-192zM817 606h572l-289 527z" />
<glyph unicode="&#xc3;" horiz-adv-x="2195" d="M4 0l813 1489h580l798 -1489h-499l-144 248h-907l-145 -248h-496zM664 1626q63 233 276 233q23 0 46.5 -3t48.5 -7l172 -33q33 -6 71 -6q92 0 117 76h137q-27 -117 -101.5 -177.5t-185.5 -60.5q-43 0 -81 9l-185 36q-14 4 -26.5 4h-26.5q-100 0 -125 -71h-137zM817 606 h572l-289 527z" />
<glyph unicode="&#xc4;" horiz-adv-x="2195" d="M4 0l813 1489h580l798 -1489h-499l-144 248h-907l-145 -248h-496zM695 1626v262h327v-262h-327zM817 606h572l-289 527zM1174 1626v262h327v-262h-327z" />
<glyph unicode="&#xc5;" horiz-adv-x="2195" d="M4 0l813 1481h580l798 -1481h-499l-144 248h-907l-145 -248h-496zM760 1761q0 100 89 155.5t259 55.5q172 0 260 -54.5t88 -156.5t-88 -156.5t-260 -54.5q-170 0 -259 56.5t-89 154.5zM817 606h572l-289 551zM969 1761q0 -111 139 -110q139 -1 139 110t-139 111 t-139 -111z" />
<glyph unicode="&#xc6;" horiz-adv-x="2697" d="M-66 0l965 1489h1655v-363h-866v-225h839v-313h-839v-228h866v-360h-1288v289h-635l-193 -289h-504zM831 588h435v581h-74z" />
<glyph unicode="&#xc7;" horiz-adv-x="2150" d="M141 528v406q0 168 38 278.5t123 176t218 92t324 26.5h508q197 0 330 -16t214 -80q72 -55 105 -147.5t33 -227.5v-40.5t-2 -43.5h-457v15q0 90 -58.5 129t-181.5 39h-364q-111 0 -181.5 -10.5t-112.5 -41t-57.5 -89t-15.5 -152.5v-207q0 -88 19.5 -142.5t63.5 -85 t113.5 -42t170.5 -11.5h264q94 0 160.5 7.5t109.5 29t62.5 61.5t19.5 107v16h461q2 -29 3 -55t1 -53q0 -139 -35 -232.5t-114 -152.5q-86 -63 -220.5 -81.5t-330.5 -18.5h-508q-88 0 -164 3t-141.5 14t-121 33.5t-104.5 59.5q-94 74 -133 178.5t-39 257.5zM817 -324h333 q39 0 39 41t-43 41h-135q-35 0 -44 18.5t-9 57.5v166h129v-109h168q68 0 93.5 -34.5t25.5 -114.5v-53q0 -82 -25.5 -116t-95.5 -34h-436v137z" />
<glyph unicode="&#xc8;" horiz-adv-x="1904" d="M150 0v1489h1626v-363h-1172v-225h1104v-313h-1104v-228h1190v-360h-1644zM516 1900h398l268 -284h-192z" />
<glyph unicode="&#xc9;" horiz-adv-x="1904" d="M150 0v1489h1626v-363h-1172v-225h1104v-313h-1104v-228h1190v-360h-1644zM748 1616l268 284h398l-474 -284h-192z" />
<glyph unicode="&#xca;" horiz-adv-x="1904" d="M150 0v1489h1626v-363h-1172v-225h1104v-313h-1104v-228h1190v-360h-1644zM537 1616l268 284h320l268 -284h-192l-236 149l-236 -149h-192z" />
<glyph unicode="&#xcb;" horiz-adv-x="1904" d="M150 0v1489h1626v-363h-1172v-225h1104v-313h-1104v-228h1190v-360h-1644zM562 1626v262h327v-262h-327zM1041 1626v262h327v-262h-327z" />
<glyph unicode="&#xcc;" horiz-adv-x="794" d="M-50 1900h398l268 -284h-192zM170 0v1489h455v-1489h-455z" />
<glyph unicode="&#xcd;" horiz-adv-x="794" d="M170 0v1489h455v-1489h-455zM182 1616l268 284h398l-474 -284h-192z" />
<glyph unicode="&#xce;" horiz-adv-x="794" d="M-29 1616l268 284h320l268 -284h-192l-236 149l-236 -149h-192zM170 0v1489h455v-1489h-455z" />
<glyph unicode="&#xcf;" horiz-adv-x="794" d="M-4 1626v262h327v-262h-327zM170 0v1489h455v-1489h-455zM475 1626v262h327v-262h-327z" />
<glyph unicode="&#xd0;" horiz-adv-x="2267" d="M0 627v237h190v625h1307q332 0 491.5 -117t159.5 -383v-512q0 -248 -123.5 -362.5t-394.5 -114.5h-1440v627h-190zM645 362h770q145 0 211 58.5t66 185.5v262q0 133 -82 193.5t-254 60.5h-711v-258h492v-237h-492v-265z" />
<glyph unicode="&#xd1;" horiz-adv-x="2310" d="M154 0v1489h673l887 -1092v1092h453v-1489h-666l-893 1083v-1083h-454zM791 1626q63 233 276 233q23 0 46.5 -3t48.5 -7l172 -33q33 -6 71 -6q92 0 117 76h137q-27 -117 -101.5 -177.5t-185.5 -60.5q-43 0 -81 9l-185 36q-14 4 -26.5 4h-26.5q-100 0 -125 -71h-137z" />
<glyph unicode="&#xd2;" horiz-adv-x="2252" d="M119 528v406q0 174 34.5 286.5t127.5 182.5q92 68 232 86t345 18h535q205 0 347 -18.5t232 -85.5q86 -66 123 -175.5t37 -275.5v-415q0 -166 -37 -275.5t-123 -175.5q-92 -70 -234.5 -87t-344.5 -17h-533q-100 0 -185 3t-157 13t-131 31.5t-106 56.5q-92 68 -127 174.5 t-35 267.5zM582 635q0 -88 22.5 -143.5t70.5 -86t123.5 -41t184.5 -10.5h289q109 0 184.5 10.5t123.5 41t69.5 87t21.5 146.5v211q0 90 -21.5 146.5t-69.5 87t-124 41t-184 10.5h-291q-111 0 -186.5 -10.5t-123.5 -42t-68.5 -89t-20.5 -151.5v-207zM677 1900h398l268 -284 h-192z" />
<glyph unicode="&#xd3;" horiz-adv-x="2252" d="M119 528v406q0 174 34.5 286.5t127.5 182.5q92 68 232 86t345 18h535q205 0 347 -18.5t232 -85.5q86 -66 123 -175.5t37 -275.5v-415q0 -166 -37 -275.5t-123 -175.5q-92 -70 -234.5 -87t-344.5 -17h-533q-100 0 -185 3t-157 13t-131 31.5t-106 56.5q-92 68 -127 174.5 t-35 267.5zM582 635q0 -88 22.5 -143.5t70.5 -86t123.5 -41t184.5 -10.5h289q109 0 184.5 10.5t123.5 41t69.5 87t21.5 146.5v211q0 90 -21.5 146.5t-69.5 87t-124 41t-184 10.5h-291q-111 0 -186.5 -10.5t-123.5 -42t-68.5 -89t-20.5 -151.5v-207zM909 1616l268 284h398 l-474 -284h-192z" />
<glyph unicode="&#xd4;" horiz-adv-x="2252" d="M119 528v406q0 174 34.5 286.5t127.5 182.5q92 68 232 86t345 18h535q205 0 347 -18.5t232 -85.5q86 -66 123 -175.5t37 -275.5v-415q0 -166 -37 -275.5t-123 -175.5q-92 -70 -234.5 -87t-344.5 -17h-533q-100 0 -185 3t-157 13t-131 31.5t-106 56.5q-92 68 -127 174.5 t-35 267.5zM582 635q0 -88 22.5 -143.5t70.5 -86t123.5 -41t184.5 -10.5h289q109 0 184.5 10.5t123.5 41t69.5 87t21.5 146.5v211q0 90 -21.5 146.5t-69.5 87t-124 41t-184 10.5h-291q-111 0 -186.5 -10.5t-123.5 -42t-68.5 -89t-20.5 -151.5v-207zM698 1616l268 284h320 l268 -284h-192l-236 149l-236 -149h-192z" />
<glyph unicode="&#xd5;" horiz-adv-x="2252" d="M119 528v406q0 174 34.5 286.5t127.5 182.5q92 68 232 86t345 18h535q205 0 347 -18.5t232 -85.5q86 -66 123 -175.5t37 -275.5v-415q0 -166 -37 -275.5t-123 -175.5q-92 -70 -234.5 -87t-344.5 -17h-533q-100 0 -185 3t-157 13t-131 31.5t-106 56.5q-92 68 -127 174.5 t-35 267.5zM582 635q0 -88 22.5 -143.5t70.5 -86t123.5 -41t184.5 -10.5h289q109 0 184.5 10.5t123.5 41t69.5 87t21.5 146.5v211q0 90 -21.5 146.5t-69.5 87t-124 41t-184 10.5h-291q-111 0 -186.5 -10.5t-123.5 -42t-68.5 -89t-20.5 -151.5v-207zM692 1626q63 233 276 233 q23 0 46.5 -3t48.5 -7l172 -33q33 -6 71 -6q92 0 117 76h137q-27 -117 -101.5 -177.5t-185.5 -60.5q-43 0 -81 9l-185 36q-14 4 -26.5 4h-26.5q-100 0 -125 -71h-137z" />
<glyph unicode="&#xd6;" horiz-adv-x="2252" d="M119 528v406q0 174 34.5 286.5t127.5 182.5q92 68 232 86t345 18h535q205 0 347 -18.5t232 -85.5q86 -66 123 -175.5t37 -275.5v-415q0 -166 -37 -275.5t-123 -175.5q-92 -70 -234.5 -87t-344.5 -17h-533q-100 0 -185 3t-157 13t-131 31.5t-106 56.5q-92 68 -127 174.5 t-35 267.5zM582 635q0 -88 22.5 -143.5t70.5 -86t123.5 -41t184.5 -10.5h289q109 0 184.5 10.5t123.5 41t69.5 87t21.5 146.5v211q0 90 -21.5 146.5t-69.5 87t-124 41t-184 10.5h-291q-111 0 -186.5 -10.5t-123.5 -42t-68.5 -89t-20.5 -151.5v-207zM723 1626v262h327v-262 h-327zM1202 1626v262h327v-262h-327z" />
<glyph unicode="&#xd7;" horiz-adv-x="1705" d="M268 170l441 440l-441 443l162 161l440 -440l441 440l162 -161l-441 -443l441 -440l-162 -162l-441 441l-440 -441z" />
<glyph unicode="&#xd8;" horiz-adv-x="2252" d="M47 84l143 113q-63 158 -63 331v404q0 174 35 286.5t127 182.5t232.5 88t344.5 18h535q299 0 446 -41l187 150l125 -168l-125 -96q57 -68 82.5 -167.5t25.5 -234.5v-413q0 -166 -38 -275.5t-124 -175.5q-92 -70 -234 -87t-345 -17h-533q-186 0 -312 14t-200 53l-184 -145 zM578 629q0 -31 2 -62.5t10 -62.5l831 637q-27 4 -59.5 4h-73.5h-297q-115 0 -193.5 -11.5t-127.5 -44t-70.5 -92t-21.5 -155.5v-213zM752 360q39 -10 86 -13t100 -3h344q111 0 188.5 10.5t127 42t72 89t22.5 151.5v217q0 143 -47 197z" />
<glyph unicode="&#xd9;" horiz-adv-x="2150" d="M150 465v1024h454v-883q0 -82 17.5 -132t60.5 -76.5t113.5 -36t175.5 -9.5h258q88 0 148.5 10.5t99.5 38t56 76.5t17 129v883h455v-1024q0 -139 -37 -231.5t-113.5 -148.5t-195.5 -79.5t-285 -23.5h-508q-199 0 -335 22.5t-221 77.5t-122.5 148.5t-37.5 234.5zM626 1900 h398l268 -284h-192z" />
<glyph unicode="&#xda;" horiz-adv-x="2150" d="M150 465v1024h454v-883q0 -82 17.5 -132t60.5 -76.5t113.5 -36t175.5 -9.5h258q88 0 148.5 10.5t99.5 38t56 76.5t17 129v883h455v-1024q0 -139 -37 -231.5t-113.5 -148.5t-195.5 -79.5t-285 -23.5h-508q-199 0 -335 22.5t-221 77.5t-122.5 148.5t-37.5 234.5zM858 1616 l268 284h398l-474 -284h-192z" />
<glyph unicode="&#xdb;" horiz-adv-x="2150" d="M150 465v1024h454v-883q0 -82 17.5 -132t60.5 -76.5t113.5 -36t175.5 -9.5h258q88 0 148.5 10.5t99.5 38t56 76.5t17 129v883h455v-1024q0 -139 -37 -231.5t-113.5 -148.5t-195.5 -79.5t-285 -23.5h-508q-199 0 -335 22.5t-221 77.5t-122.5 148.5t-37.5 234.5zM647 1616 l268 284h320l268 -284h-192l-236 149l-236 -149h-192z" />
<glyph unicode="&#xdc;" horiz-adv-x="2150" d="M150 465v1024h454v-883q0 -82 17.5 -132t60.5 -76.5t113.5 -36t175.5 -9.5h258q88 0 148.5 10.5t99.5 38t56 76.5t17 129v883h455v-1024q0 -139 -37 -231.5t-113.5 -148.5t-195.5 -79.5t-285 -23.5h-508q-199 0 -335 22.5t-221 77.5t-122.5 148.5t-37.5 234.5zM672 1626 v262h327v-262h-327zM1151 1626v262h327v-262h-327z" />
<glyph unicode="&#xdd;" horiz-adv-x="2103" d="M-6 1489h559l489 -592l512 592h539l-823 -954v-535h-455v535zM836 1616l268 284h398l-474 -284h-192z" />
<glyph unicode="&#xde;" horiz-adv-x="1996" d="M156 0v1489h456v-176h686q131 0 227.5 -12.5t168.5 -49.5q121 -63 168 -183t47 -314q0 -150 -23.5 -256.5t-76 -174t-138.5 -98t-209 -30.5h-850v-195h-456zM612 565h670q92 0 128 44t36 149q0 94 -36 139t-128 45h-670v-377z" />
<glyph unicode="&#xdf;" horiz-adv-x="1650" d="M147 0v1055q0 125 32 211t97.5 138t166 74.5t239.5 22.5h326q244 0 352 -92t108 -297q0 -102 -36.5 -164.5t-124.5 -103.5q244 -66 243 -283v-190q0 -111 -29.5 -185.5t-91 -118.5t-154.5 -63.5t-218 -19.5q-78 0 -158 4t-160 12v297q113 -18 197 -18q117 0 176 40.5 t59 104.5v135q0 121 -223 121h-207v258h187q84 0 123 31.5t39 103.5q0 143 -148 144h-186q-66 0 -110 -7.5t-70.5 -30t-37 -66.5t-10.5 -118v-995h-381z" />
<glyph unicode="&#xe0;" horiz-adv-x="1548" d="M68 338q0 104 28.5 172t93 105.5t165 53t245.5 15.5q166 0 280.5 -20.5t184.5 -69.5v113q0 115 -147 114h-310q-111 0 -110 -80h-381v13q0 174 130 243.5t404 69.5h371q215 0 318.5 -84t103.5 -264v-719h-379v127q-59 -76 -181 -108.5t-311 -32.5q-139 0 -236 16 t-156.5 56t-86 109t-26.5 171zM325 1460h398l268 -284h-192zM453 346q0 -63 45 -81.5t143 -18.5h231q98 0 143.5 22.5t45.5 85.5t-45 82t-144 19h-231q-98 0 -143 -22.5t-45 -86.5z" />
<glyph unicode="&#xe1;" horiz-adv-x="1548" d="M68 338q0 104 28.5 172t93 105.5t165 53t245.5 15.5q166 0 280.5 -20.5t184.5 -69.5v113q0 115 -147 114h-310q-111 0 -110 -80h-381v13q0 174 130 243.5t404 69.5h371q215 0 318.5 -84t103.5 -264v-719h-379v127q-59 -76 -181 -108.5t-311 -32.5q-139 0 -236 16 t-156.5 56t-86 109t-26.5 171zM453 346q0 -63 45 -81.5t143 -18.5h231q98 0 143.5 22.5t45.5 85.5t-45 82t-144 19h-231q-98 0 -143 -22.5t-45 -86.5zM557 1176l268 284h398l-474 -284h-192z" />
<glyph unicode="&#xe2;" horiz-adv-x="1548" d="M68 338q0 104 28.5 172t93 105.5t165 53t245.5 15.5q166 0 280.5 -20.5t184.5 -69.5v113q0 115 -147 114h-310q-111 0 -110 -80h-381v13q0 174 130 243.5t404 69.5h371q215 0 318.5 -84t103.5 -264v-719h-379v127q-59 -76 -181 -108.5t-311 -32.5q-139 0 -236 16 t-156.5 56t-86 109t-26.5 171zM346 1176l268 284h320l268 -284h-192l-236 149l-236 -149h-192zM453 346q0 -63 45 -81.5t143 -18.5h231q98 0 143.5 22.5t45.5 85.5t-45 82t-144 19h-231q-98 0 -143 -22.5t-45 -86.5z" />
<glyph unicode="&#xe3;" horiz-adv-x="1548" d="M68 338q0 104 28.5 172t93 105.5t165 53t245.5 15.5q166 0 280.5 -20.5t184.5 -69.5v113q0 115 -147 114h-310q-111 0 -110 -80h-381v13q0 174 130 243.5t404 69.5h371q215 0 318.5 -84t103.5 -264v-719h-379v127q-59 -76 -181 -108.5t-311 -32.5q-139 0 -236 16 t-156.5 56t-86 109t-26.5 171zM340 1186q63 233 276 233q23 0 46.5 -3t48.5 -7l172 -33q33 -6 71 -6q92 0 117 76h137q-27 -117 -101.5 -177.5t-185.5 -60.5q-43 0 -81 9l-185 36q-14 4 -26.5 4h-26.5q-100 0 -125 -71h-137zM453 346q0 -63 45 -81.5t143 -18.5h231 q98 0 143.5 22.5t45.5 85.5t-45 82t-144 19h-231q-98 0 -143 -22.5t-45 -86.5z" />
<glyph unicode="&#xe4;" horiz-adv-x="1548" d="M68 338q0 104 28.5 172t93 105.5t165 53t245.5 15.5q166 0 280.5 -20.5t184.5 -69.5v113q0 115 -147 114h-310q-111 0 -110 -80h-381v13q0 174 130 243.5t404 69.5h371q215 0 318.5 -84t103.5 -264v-719h-379v127q-59 -76 -181 -108.5t-311 -32.5q-139 0 -236 16 t-156.5 56t-86 109t-26.5 171zM371 1186v262h327v-262h-327zM453 346q0 -63 45 -81.5t143 -18.5h231q98 0 143.5 22.5t45.5 85.5t-45 82t-144 19h-231q-98 0 -143 -22.5t-45 -86.5zM850 1186v262h327v-262h-327z" />
<glyph unicode="&#xe5;" horiz-adv-x="1548" d="M68 338q0 104 28.5 172t93 105.5t165 53t245.5 15.5q166 0 280.5 -20.5t184.5 -69.5v113q0 115 -147 114h-310q-111 0 -110 -80h-381v13q0 174 130 243.5t404 69.5h371q215 0 318.5 -84t103.5 -264v-719h-379v127q-59 -76 -181 -108.5t-311 -32.5q-139 0 -236 16 t-156.5 56t-86 109t-26.5 171zM453 346q0 -63 45 -81.5t143 -18.5h231q98 0 143.5 22.5t45.5 85.5t-45 82t-144 19h-231q-98 0 -143 -22.5t-45 -86.5zM471 1341q0 96 83 147.5t243 51.5t242.5 -51.5t82.5 -147.5t-83 -147t-242 -51q-160 0 -243 51t-83 147zM664 1341 q0 -106 133 -106t133 106t-133 107q-133 0 -133 -107z" />
<glyph unicode="&#xe6;" horiz-adv-x="2449" d="M88 338q0 104 27.5 170.5t89 104.5t160 53.5t239.5 15.5q156 0 270.5 -19.5t196.5 -72.5v117q0 53 -40 83.5t-111 30.5h-308q-106 0 -108 -80h-369v13q0 174 125 243.5t393 69.5h258q129 0 217.5 -42t128.5 -118q37 86 123 122t232 36h321q217 0 331 -103.5t114 -302.5 v-225h-942q0 -8 -1 -15t-1 -13q0 -94 52 -133.5t169 -39.5h157q96 0 143.5 19.5t61.5 97.5h361v-12q0 -193 -106.5 -272.5t-338.5 -79.5h-319q-269 0 -365 139q-35 -53 -88 -82t-126.5 -42t-167 -16t-210.5 -3q-131 0 -231 8t-172 30q-166 53 -166 318zM473 344 q0 -63 45 -81.5t144 -18.5h231q98 0 143 23.5t45 86.5t-45 82t-143 19h-231q-98 0 -143.5 -23.5t-45.5 -87.5zM1436 668h583v4q0 78 -51 107.5t-164 29.5h-153q-113 0 -164 -29.5t-51 -107.5v-4z" />
<glyph unicode="&#xe7;" horiz-adv-x="1597" d="M109 373v286q0 113 25.5 191t83.5 126t155.5 69.5t238.5 21.5h359q262 0 384 -85t122 -275q0 -41 -7 -86h-358v6q0 86 -49 120.5t-160 34.5h-186q-129 0 -178.5 -41t-49.5 -151v-135q0 -100 52.5 -142.5t175.5 -42.5h166q63 0 107 6.5t72 24.5t40 52t12 89h377 q2 -16 2 -32.5v-32.5q0 -109 -29.5 -183.5t-92 -120.5t-160 -66.5t-234.5 -20.5h-365q-131 0 -226 21.5t-156.5 67.5t-91 119.5t-29.5 178.5zM529 -324h333q39 0 39 41t-43 41h-135q-35 0 -44 18.5t-9 57.5v166h129v-109h168q68 0 93.5 -34.5t25.5 -114.5v-53 q0 -82 -25.5 -116t-95.5 -34h-436v137z" />
<glyph unicode="&#xe8;" horiz-adv-x="1548" d="M109 373v286q0 199 124.5 303.5t362.5 104.5h354q240 0 364 -104.5t124 -303.5v-225h-951q0 -8 -1 -15t-1 -13q0 -92 53.5 -131t172.5 -39h159q49 0 85 3t60.5 14t40 33.5t23.5 63.5h357v-16q0 -190 -117 -269t-369 -79h-352q-242 0 -365.5 100t-123.5 287zM331 1460h398 l268 -284h-192zM487 666h584v4q0 78 -50 107.5t-163 29.5h-156q-113 0 -164 -29.5t-51 -107.5v-4z" />
<glyph unicode="&#xe9;" horiz-adv-x="1548" d="M109 373v286q0 199 124.5 303.5t362.5 104.5h354q240 0 364 -104.5t124 -303.5v-225h-951q0 -8 -1 -15t-1 -13q0 -92 53.5 -131t172.5 -39h159q49 0 85 3t60.5 14t40 33.5t23.5 63.5h357v-16q0 -190 -117 -269t-369 -79h-352q-242 0 -365.5 100t-123.5 287zM487 666h584 v4q0 78 -50 107.5t-163 29.5h-156q-113 0 -164 -29.5t-51 -107.5v-4zM563 1176l268 284h398l-474 -284h-192z" />
<glyph unicode="&#xea;" horiz-adv-x="1548" d="M109 373v286q0 199 124.5 303.5t362.5 104.5h354q240 0 364 -104.5t124 -303.5v-225h-951q0 -8 -1 -15t-1 -13q0 -92 53.5 -131t172.5 -39h159q49 0 85 3t60.5 14t40 33.5t23.5 63.5h357v-16q0 -190 -117 -269t-369 -79h-352q-242 0 -365.5 100t-123.5 287zM352 1176 l268 284h320l268 -284h-192l-236 149l-236 -149h-192zM487 666h584v4q0 78 -50 107.5t-163 29.5h-156q-113 0 -164 -29.5t-51 -107.5v-4z" />
<glyph unicode="&#xeb;" horiz-adv-x="1548" d="M109 373v286q0 199 124.5 303.5t362.5 104.5h354q240 0 364 -104.5t124 -303.5v-225h-951q0 -8 -1 -15t-1 -13q0 -92 53.5 -131t172.5 -39h159q49 0 85 3t60.5 14t40 33.5t23.5 63.5h357v-16q0 -190 -117 -269t-369 -79h-352q-242 0 -365.5 100t-123.5 287zM377 1186v262 h327v-262h-327zM487 666h584v4q0 78 -50 107.5t-163 29.5h-156q-113 0 -164 -29.5t-51 -107.5v-4zM856 1186v262h327v-262h-327z" />
<glyph unicode="&#xec;" horiz-adv-x="696" d="M-99 1460h398l268 -284h-192zM160 0v1053h379v-1053h-379z" />
<glyph unicode="&#xed;" horiz-adv-x="696" d="M133 1176l268 284h398l-474 -284h-192zM160 0v1053h379v-1053h-379z" />
<glyph unicode="&#xee;" horiz-adv-x="696" d="M-78 1176l268 284h320l268 -284h-192l-236 149l-236 -149h-192zM160 0v1053h379v-1053h-379z" />
<glyph unicode="&#xef;" horiz-adv-x="696" d="M-53 1186v262h327v-262h-327zM160 0v1053h379v-1053h-379zM426 1186v262h327v-262h-327z" />
<glyph unicode="&#xf0;" horiz-adv-x="1646" d="M109 356v277q0 106 27.5 181t89 121t161.5 67.5t246 21.5h164q152 0 270 -88l-248 256l-463 -66l-24 177l338 45l-138 143h410l88 -90l369 53l26 -180l-235 -33l162 -156q51 -49 87 -95t57.5 -100t31.5 -118.5t10 -150.5v-256q0 -106 -30.5 -179t-94 -117t-163 -63.5 t-236.5 -19.5h-379q-135 0 -234.5 19.5t-164 62.5t-96 113.5t-31.5 174.5zM487 440q0 -96 58.5 -132t189.5 -36h178q129 0 187.5 36t58.5 134v127q0 96 -58.5 134t-187.5 38h-178q-137 0 -192.5 -36.5t-55.5 -139.5v-125z" />
<glyph unicode="&#xf1;" horiz-adv-x="1650" d="M147 0v1047h379v-162q37 55 83 90t103.5 54.5t128 26.5t158.5 7q514 0 514 -383v-680h-378v530q0 63 -11.5 107.5t-44 71t-92 38t-156.5 11.5q-166 0 -235.5 -57.5t-69.5 -192.5v-508h-379zM412 1186q63 233 276 233q23 0 46.5 -3t48.5 -7l172 -33q33 -6 71 -6 q92 0 117 76h137q-27 -117 -101.5 -177.5t-185.5 -60.5q-43 0 -81 9l-185 36q-14 4 -26.5 4h-26.5q-100 0 -125 -71h-137z" />
<glyph unicode="&#xf2;" horiz-adv-x="1646" d="M109 373v286q0 111 27.5 189t89 126t161.5 70.5t246 22.5h381q139 0 238.5 -22.5t163 -69.5t93 -123t29.5 -180v-293q0 -111 -30.5 -186.5t-94 -121.5t-163 -65.5t-236.5 -19.5h-379q-135 0 -234.5 20.5t-164 65.5t-96 118.5t-31.5 182.5zM374 1460h398l268 -284h-192z M487 455q0 -104 58.5 -144.5t189.5 -40.5h178q129 0 187.5 40t58.5 147v139q0 104 -57.5 145t-188.5 41h-178q-70 0 -117 -9t-76.5 -31.5t-42 -59.5t-12.5 -92v-135z" />
<glyph unicode="&#xf3;" horiz-adv-x="1646" d="M109 373v286q0 111 27.5 189t89 126t161.5 70.5t246 22.5h381q139 0 238.5 -22.5t163 -69.5t93 -123t29.5 -180v-293q0 -111 -30.5 -186.5t-94 -121.5t-163 -65.5t-236.5 -19.5h-379q-135 0 -234.5 20.5t-164 65.5t-96 118.5t-31.5 182.5zM487 455q0 -104 58.5 -144.5 t189.5 -40.5h178q129 0 187.5 40t58.5 147v139q0 104 -57.5 145t-188.5 41h-178q-70 0 -117 -9t-76.5 -31.5t-42 -59.5t-12.5 -92v-135zM606 1176l268 284h398l-474 -284h-192z" />
<glyph unicode="&#xf4;" horiz-adv-x="1646" d="M109 373v286q0 111 27.5 189t89 126t161.5 70.5t246 22.5h381q139 0 238.5 -22.5t163 -69.5t93 -123t29.5 -180v-293q0 -111 -30.5 -186.5t-94 -121.5t-163 -65.5t-236.5 -19.5h-379q-135 0 -234.5 20.5t-164 65.5t-96 118.5t-31.5 182.5zM395 1176l268 284h320l268 -284 h-192l-236 149l-236 -149h-192zM487 455q0 -104 58.5 -144.5t189.5 -40.5h178q129 0 187.5 40t58.5 147v139q0 104 -57.5 145t-188.5 41h-178q-70 0 -117 -9t-76.5 -31.5t-42 -59.5t-12.5 -92v-135z" />
<glyph unicode="&#xf5;" horiz-adv-x="1646" d="M109 373v286q0 111 27.5 189t89 126t161.5 70.5t246 22.5h381q139 0 238.5 -22.5t163 -69.5t93 -123t29.5 -180v-293q0 -111 -30.5 -186.5t-94 -121.5t-163 -65.5t-236.5 -19.5h-379q-135 0 -234.5 20.5t-164 65.5t-96 118.5t-31.5 182.5zM389 1186q63 233 276 233 q23 0 46.5 -3t48.5 -7l172 -33q33 -6 71 -6q92 0 117 76h137q-27 -117 -101.5 -177.5t-185.5 -60.5q-43 0 -81 9l-185 36q-14 4 -26.5 4h-26.5q-100 0 -125 -71h-137zM487 455q0 -104 58.5 -144.5t189.5 -40.5h178q129 0 187.5 40t58.5 147v139q0 104 -57.5 145t-188.5 41 h-178q-70 0 -117 -9t-76.5 -31.5t-42 -59.5t-12.5 -92v-135z" />
<glyph unicode="&#xf6;" horiz-adv-x="1646" d="M109 373v286q0 111 27.5 189t89 126t161.5 70.5t246 22.5h381q139 0 238.5 -22.5t163 -69.5t93 -123t29.5 -180v-293q0 -111 -30.5 -186.5t-94 -121.5t-163 -65.5t-236.5 -19.5h-379q-135 0 -234.5 20.5t-164 65.5t-96 118.5t-31.5 182.5zM420 1186v262h327v-262h-327z M487 455q0 -104 58.5 -144.5t189.5 -40.5h178q129 0 187.5 40t58.5 147v139q0 104 -57.5 145t-188.5 41h-178q-70 0 -117 -9t-76.5 -31.5t-42 -59.5t-12.5 -92v-135zM899 1186v262h327v-262h-327z" />
<glyph unicode="&#xf7;" horiz-adv-x="1705" d="M254 496v231h1198v-231h-1198zM688 205q0 70 49 118t117 48t116 -48.5t48 -117.5q0 -66 -46 -115t-118 -49q-68 0 -117 47t-49 117zM688 1016q0 70 49 118t117 48q33 0 62.5 -13.5t52 -36t36 -52t13.5 -64.5q0 -33 -12.5 -62.5t-35 -52t-53 -36t-65.5 -13.5 q-70 0 -117 48t-47 116z" />
<glyph unicode="&#xf8;" horiz-adv-x="1646" d="M2 102l139 99q-12 43 -19 85t-7 85v288q0 111 27.5 188t90 126t163 70.5t245.5 21.5h379q109 0 188.5 -11.5t132.5 -35.5l158 106l103 -151l-109 -74q53 -72 53 -227v-293q0 -111 -30.5 -186.5t-95 -121.5t-164 -65.5t-236.5 -19.5h-379q-131 0 -224 16t-155 53 l-153 -106zM485 434l512 350q-25 2 -42 3t-27 1h-187q-72 0 -121 -10t-78.5 -32.5t-43 -61.5t-13.5 -96v-154zM590 281q23 -8 60.5 -13.5t86.5 -5.5h185q135 0 195.5 41t60.5 152v145q0 14 -2 32.5t-9 43.5z" />
<glyph unicode="&#xf9;" horiz-adv-x="1650" d="M135 379v674h379v-537q0 -61 10.5 -103t41 -70t87 -40t148.5 -12q88 0 149.5 11t100.5 40t56 77t17 120v514h379v-1053h-379v162q-37 -55 -83 -90t-103 -54.5t-128 -25.5t-159 -6q-266 0 -391 94t-125 299zM366 1460h398l268 -284h-192z" />
<glyph unicode="&#xfa;" horiz-adv-x="1650" d="M135 379v674h379v-537q0 -61 10.5 -103t41 -70t87 -40t148.5 -12q88 0 149.5 11t100.5 40t56 77t17 120v514h379v-1053h-379v162q-37 -55 -83 -90t-103 -54.5t-128 -25.5t-159 -6q-266 0 -391 94t-125 299zM598 1176l268 284h398l-474 -284h-192z" />
<glyph unicode="&#xfb;" horiz-adv-x="1650" d="M135 379v674h379v-537q0 -61 10.5 -103t41 -70t87 -40t148.5 -12q88 0 149.5 11t100.5 40t56 77t17 120v514h379v-1053h-379v162q-37 -55 -83 -90t-103 -54.5t-128 -25.5t-159 -6q-266 0 -391 94t-125 299zM387 1176l268 284h320l268 -284h-192l-236 149l-236 -149h-192z " />
<glyph unicode="&#xfc;" horiz-adv-x="1650" d="M135 379v674h379v-537q0 -61 10.5 -103t41 -70t87 -40t148.5 -12q88 0 149.5 11t100.5 40t56 77t17 120v514h379v-1053h-379v162q-37 -55 -83 -90t-103 -54.5t-128 -25.5t-159 -6q-266 0 -391 94t-125 299zM412 1186v262h327v-262h-327zM891 1186v262h327v-262h-327z" />
<glyph unicode="&#xfd;" horiz-adv-x="1452" d="M23 1053h417l293 -684l303 684h414l-526 -1135q-39 -86 -80 -141.5t-94 -85.5q-47 -27 -107.5 -37t-138.5 -10q-39 0 -82 2t-90 6v250q45 -6 82 -6q92 0 142 36.5t69 118.5h-142zM510 1176l268 284h398l-474 -284h-192z" />
<glyph unicode="&#xfe;" horiz-adv-x="1658" d="M147 -356v1845h379v-629q12 119 126 163t343 44q147 0 253 -17.5t173.5 -59.5t98 -109.5t30.5 -165.5v-348q0 -195 -131 -280t-418 -85q-106 0 -187 7t-139.5 28.5t-95 57.5t-53.5 95v-546h-379zM520 473q0 -106 52.5 -145t187.5 -39h172q127 0 183 40t56 138v131 q0 102 -57 140t-182 38h-172q-129 0 -184.5 -39t-55.5 -137v-127z" />
<glyph unicode="&#xff;" horiz-adv-x="1452" d="M23 1053h417l293 -684l303 684h414l-526 -1135q-39 -86 -80 -141.5t-94 -85.5q-47 -27 -107.5 -37t-138.5 -10q-39 0 -82 2t-90 6v250q45 -6 82 -6q92 0 142 36.5t69 118.5h-142zM324 1186v262h327v-262h-327zM803 1186v262h327v-262h-327z" />
<glyph unicode="&#x152;" horiz-adv-x="2693" d="M70 524v406q0 174 32.5 286.5t118.5 180.5t219 86t324 18h291q139 0 223 -43t137 -155v184h1217v-361h-838v-225h811v-313h-811v-228h838v-360h-1217v166q-35 -57 -70.5 -93t-78.5 -56.5t-95.5 -27.5t-115.5 -7h-289q-190 0 -321.5 17t-221.5 87q-86 66 -119.5 172.5 t-33.5 265.5zM500 631q0 -86 17.5 -140.5t55 -85t98 -42t146.5 -11.5h242q88 0 148.5 11.5t97 43t53 87t16.5 143.5v211q0 88 -16.5 143.5t-53 86t-97 41.5t-148.5 11h-242q-90 0 -150.5 -11t-97.5 -43t-53 -89t-16 -149v-207z" />
<glyph unicode="&#x153;" horiz-adv-x="2549" d="M102 371v286q0 111 25 188t80 125t145 70.5t223 22.5h343q158 0 258 -23.5t157 -101.5q61 70 149.5 98.5t213.5 28.5h329q223 0 338 -102.5t115 -303.5v-225h-946q0 -8 -1 -15t-1 -13q0 -94 53 -133.5t170 -39.5h158q96 0 143 19.5t62 97.5h360v-16q0 -188 -107.5 -268 t-343.5 -80h-327q-162 0 -249 36t-116 128q-29 -53 -66.5 -85t-89 -49.5t-116 -23.5t-143.5 -6h-343q-123 0 -213 20.5t-147 65.5t-85 118.5t-28 180.5zM479 465q0 -98 58.5 -134t189.5 -36h178q129 0 187.5 36t58.5 138v131q0 98 -58.5 136t-187.5 38h-178q-70 0 -117 -8 t-76.5 -29.5t-42 -56.5t-12.5 -86v-129zM1526 674h583v4q0 78 -50 107.5t-163 29.5h-155q-113 0 -164 -29.5t-51 -107.5v-4z" />
<glyph unicode="&#x178;" horiz-adv-x="2103" d="M-6 1489h559l489 -592l512 592h539l-823 -954v-535h-455v535zM650 1626v262h327v-262h-327zM1129 1626v262h327v-262h-327z" />
<glyph unicode="&#x2c6;" d="M84 1176l268 284h320l268 -284h-192l-236 149l-236 -149h-192z" />
<glyph unicode="&#x2dc;" d="M78 1186q63 233 276 233q23 0 46.5 -3t48.5 -7l172 -33q33 -6 71 -6q92 0 117 76h137q-27 -117 -101.5 -177.5t-185.5 -60.5q-43 0 -81 9l-185 36q-14 4 -26.5 4h-26.5q-100 0 -125 -71h-137z" />
<glyph unicode="&#x2000;" horiz-adv-x="986" />
<glyph unicode="&#x2001;" horiz-adv-x="1972" />
<glyph unicode="&#x2002;" horiz-adv-x="986" />
<glyph unicode="&#x2003;" horiz-adv-x="1972" />
<glyph unicode="&#x2004;" horiz-adv-x="657" />
<glyph unicode="&#x2005;" horiz-adv-x="493" />
<glyph unicode="&#x2006;" horiz-adv-x="328" />
<glyph unicode="&#x2007;" horiz-adv-x="328" />
<glyph unicode="&#x2008;" horiz-adv-x="246" />
<glyph unicode="&#x2009;" horiz-adv-x="394" />
<glyph unicode="&#x200a;" horiz-adv-x="109" />
<glyph unicode="&#x2010;" horiz-adv-x="1009" d="M160 344v381h674v-381h-674z" />
<glyph unicode="&#x2011;" horiz-adv-x="1009" d="M160 344v381h674v-381h-674z" />
<glyph unicode="&#x2012;" horiz-adv-x="1009" d="M160 344v381h674v-381h-674z" />
<glyph unicode="&#x2013;" d="M0 410v249h1024v-249h-1024z" />
<glyph unicode="&#x2014;" horiz-adv-x="2048" d="M0 410v249h2048v-249h-2048z" />
<glyph unicode="&#x2018;" horiz-adv-x="999" d="M285 690v498q0 170 84 243.5t276 73.5q61 0 135 -6v-227h-28q-145 0 -146 -94v-93h111v-395h-432z" />
<glyph unicode="&#x2019;" horiz-adv-x="999" d="M219 678v229h31q74 0 109.5 21.5t35.5 70.5v95h-110v395h432v-498q0 -172 -85 -245.5t-280 -73.5q-63 0 -133 6z" />
<glyph unicode="&#x201a;" horiz-adv-x="999" d="M219 -162h31q145 0 145 94v93h-110v395h432v-498q0 -172 -85 -245.5t-280 -73.5q-63 0 -133 6v229z" />
<glyph unicode="&#x201c;" horiz-adv-x="1605" d="M285 690v496q0 172 85 245.5t277 73.5q61 0 133 -6v-229h-30q-74 0 -110 -21.5t-36 -70.5v-93h111v-395h-430zM889 690v496q0 172 85 245.5t277 73.5q61 0 133 -6v-229h-30q-74 0 -110 -21.5t-36 -70.5v-93h111v-395h-430z" />
<glyph unicode="&#x201d;" horiz-adv-x="1605" d="M219 678v229h31q74 0 109.5 21.5t35.5 70.5v95h-110v395h430v-498q0 -172 -85 -245.5t-278 -73.5q-63 0 -133 6zM823 678v229h31q74 0 108.5 21.5t34.5 70.5v95h-108v395h430v-498q0 -172 -85 -245.5t-278 -73.5q-63 0 -133 6z" />
<glyph unicode="&#x201e;" horiz-adv-x="1605" d="M219 -162h31q145 0 145 94v93h-110v395h430v-498q0 -172 -85 -245.5t-278 -73.5q-63 0 -133 6v229zM823 -162h29q145 0 145 94v93h-108v395h430v-498q0 -172 -85 -245.5t-278 -73.5q-63 0 -133 6v229z" />
<glyph unicode="&#x2022;" horiz-adv-x="1208" d="M307 762q0 61 23.5 114.5t63.5 93.5t94.5 63.5t115.5 23.5t114.5 -23.5t93.5 -63.5t63.5 -93.5t23.5 -114.5t-23.5 -114.5t-63.5 -94.5t-94 -64.5t-116 -23.5q-61 0 -115.5 23.5t-94.5 63.5t-62.5 94.5t-22.5 115.5z" />
<glyph unicode="&#x2026;" horiz-adv-x="2048" d="M131 0v422h422v-422h-422zM813 0v422h422v-422h-422zM1497 0v422h422v-422h-422z" />
<glyph unicode="&#x202f;" horiz-adv-x="394" />
<glyph unicode="&#x2039;" horiz-adv-x="708" d="M82 530l233 322h312l-236 -322l236 -313h-312z" />
<glyph unicode="&#x203a;" horiz-adv-x="708" d="M80 217l235 313l-235 322h311l236 -322l-236 -313h-311z" />
<glyph unicode="&#x205f;" horiz-adv-x="493" />
<glyph unicode="&#x2122;" horiz-adv-x="1705" d="M188 1337v127h502v-127h-164v-424h-174v424h-164zM797 913v551h223l113 -303l114 303h221v-551h-155v390l-146 -390h-65l-150 390v-390h-155z" />
<glyph unicode="&#x25fc;" horiz-adv-x="1054" d="M0 0v1055h1055v-1055h-1055z" />
</font>
</defs>
</svg>
